Вместе с ним. Владимир Корш-Саблин (Владимир Орлов) [Беларусь, Белоруссия, 1999, Документальный, DVB-AVC]


Статистика раздачи [Обновить пиров]
Размер:  519 MB   |    Зарегистрирован:  8 месяцев 17 дней   |    Скачан:  0 раз

Полного источника не было: Никогда

 
   
 
 
 

[Цитировать]

Вместе с ним. Владимир Корш-Саблин
Год выпуска: 1999
Страна: Республика Беларусь
Студия: Белтелерадиокомпания
Жанр: Документальный
Продолжительность: 00:30:04
Перевод: Не требуется
Режиссер: Владимир Орлов
Описание: Документальная лента "Вместе с ним" об одном из основоположников отечественного кинематографа Владимире Корш-Саблине. Вклад Корш-Саблина в становление и развитие отечественного кинематографа сложно переоценить: актер, режиссер таких фильмов, как "В огне рожденная", "Константин Заслонов", "Красные листья", "Первые испытания" "Крушение империи" и многих других, на протяжении многих лет был главой киностудии "Беларусьфильм".
Благодарность: исходник для данной раздачи, записан с цифрового наземного канала, т.е. DVB-Т
Запись потока *.ts с наземного цифрового телеканала "Беларусь 3", ремукс в *.mkv программой VideoReDo.
[
Сэмпл: http://rusfolder.com/44458985
качество: DVB-AVC
формат: MKV
Видео: MPEG4 Video (H264) 720x576 (49:36) 25fps, 2 107 Kbps
Аудио: MPEG Audio 48000Hz stereo 256kbps

MediaInfo

General
Unique ID : 231746855482039566413815045400181258319 (0xAE58D22329B777DBFB05A9987AB2B84F)
Complete name : D:\Новая земля 2\001 Документальный фильмы\Личности\Вместе с ним. Владимир Корш-Саблин (1999)\Вместе с ним. Владимир Корш-Саблин (1999).mkv
Format : Matroska
Format version : Version 2
File size : 519 MiB
Duration : 30mn 4s
Overall bit rate : 2 411 Kbps
Writing application : Lavf52.64.2
Writing library : Lavf52.64.2
Video
ID : 1
Format : AVC
Format/Info : Advanced Video Codec
Format profile : Main@L3.0
Format settings, CABAC : Yes
Format settings, ReFrames : 4 frames
Format settings, GOP : M=4, N=24
Codec ID : V_MPEG4/ISO/AVC
Duration : 30mn 4s
Bit rate : 2 107 Kbps
Width : 720 pixels
Height : 576 pixels
Display aspect ratio : 4:3
Original display aspect ratio : 4:3
Frame rate mode : Constant
Frame rate : 25.000 fps
Standard : PAL
Color space : YUV
Chroma subsampling : 4:2:0
Bit depth : 8 bits
Scan type : MBAFF
Scan order : Top Field First
Bits/(Pixel*Frame) : 0.203
Stream size : 453 MiB (87%)
Default : Yes
Forced : No
Color primaries : BT.601 PAL
Transfer characteristics : BT.470 System B, BT.470 System G
Matrix coefficients : BT.601
Color range : Limited
Audio
ID : 2
Format : MPEG Audio
Format version : Version 1
Format profile : Layer 2
Codec ID : A_MPEG/L2
Codec ID/Hint : MP2
Duration : 30mn 4s
Bit rate mode : Constant
Bit rate : 256 Kbps
Channel(s) : 2 channels
Sampling rate : 48.0 KHz
Compression mode : Lossy
Stream size : 55.1 MiB (11%)
Language : English
Default : Yes
Forced : No
[teatrix.ru].t22605.torrent 
Торрент: Зарегистрирован [ 2016-03-21 00:36 ] · 74965B51CF3B89560DCA048C962DC6F2588E7071

Скачать .torrent

Скачать

11 KB

Статус: проверено
Скачан: 0 раз
Размер: 519 MB
terms.php



Быстрый ответ

Имя:

      
Для отправки сообщений необходимо включить JavaScript
Показать сообщения:    

Текущее время: 07-Дек 13:31

Часовой пояс: UTC + 3


Вы можете начинать темы
Вы можете отвечать на сообщения
Вы не можете редактировать свои сообщения
Вы не можете удалять свои сообщения
Вы не можете голосовать в опросах
Вы не можете прикреплять файлы к сообщениям
Вы можете скачивать файлы