Игорь Тальков: Приговоренный/ Серии: 1-2 из 2 [2015, Документальный, SATRip]


Статистика раздачи [Обновить пиров]
Размер:  1.15 GB   |    Зарегистрирован:  8 месяцев 19 дней   |    Скачан:  0 раз

Полного источника не было: Никогда

 
   
 
 
 

[Цитировать]

Игорь Тальков: Приговоренный
Дата/Год выпуска: 2015
Страна: Россия
Жанр: Документальный
Продолжительность: 2 x ~ 00:48:51
Перевод: Не требуется
Русские субтитры: нет
Телеканал: РЕН-ТВ
Описание: Игорь Тальков - одна из самых одиозных фигур российской музыкальной сцены. Для кого-то бунтарь и певец революции, для кого-то один из многих, удачно поймавших протестную перестроечную волну. А кто-то и вовсе уверен, он сделал карьеру благодаря благосклонности знаменитых женщин. Его жизнь и смерть окружены мистическими совпадениями и тайными знаками, необъяснимыми случайностями. Но где кончается реальная биография и начинается миф. Где правда, а где вымысел? Почему Игорь Тальков был уверен, что его ждет скорый трагический финал.
качество: SATRip
формат: AVI
Видео: XviD, 720х400(16:9), 1592 кбит/сек, 25,000 кадров/сек
Аудио: AC-3, 128 кбит/сек, 48,0 КГц, 2 канала

MediaInfo

Общее
Полное имя : D:\Видео\Мои раздачи\Игорь Тальков.Приговоренный.(2 из 2).2015.SATRip\Игорь Тальков. Приговоренный.(1 серия из 2).2015.avi
Формат : AVI
Формат/Информация : Audio Video Interleave
Размер файла : 627 Мбайт
Продолжительность : 48 м.
Общий поток : 1794 Кбит/сек
Программа кодирования : VirtualDubMod 1.5.10.3 | www.virtualdub-fr.org || (build 2550/release)
Библиотека кодирования : VirtualDubMod build 2550/release
Видео
Идентификатор : 0
Формат : MPEG-4 Visual
Профиль формата : Advanced Simple@L5
Параметр BVOP формата : 2
Параметр QPel формата : Нет
Параметр GMC формата : Без точки перехода
Параметр матрицы формата : Выборочная
Идентификатор кодека : XVID
Идентификатор кодека/Подсказка : XviD
Продолжительность : 48 м.
Битрейт : 1592 Кбит/сек
Ширина : 720 пикселей
Высота : 400 пикселей
Соотношение сторон : 16:9
Частота кадров : 25,000 кадров/сек
Цветовое пространство : YUV
Субдискретизация насыщенности : 4:2:0
Битовая глубина : 8 бит
Тип развёртки : Прогрессивная
Метод сжатия : С потерями
Бит/(Пиксели*Кадры) : 0.221
Размер потока : 556 Мбайт (89%)
Библиотека кодирования : XviD 73
Аудио
Идентификатор : 1
Формат : AC-3
Формат/Информация : Audio Coding 3
Расширение режима : CM (complete main)
Параметр Endianness формата : Big
Идентификатор кодека : 2000
Продолжительность : 48 м.
Вид битрейта : Постоянный
Битрейт : 192 Кбит/сек
Каналы : 2 канала
Расположение каналов : Front: L R
Частота : 48,0 КГц
Метод сжатия : С потерями
Размер потока : 67,1 Мбайт (11%)
Выравнивание : Разделение по промежуткам
Продолжительность промежутка : 40 мс. (1,00 видеокадр)
Время предзагрузки промежутка : 500 мс.
Общее
Полное имя : D:\Видео\Мои раздачи\Игорь Тальков.Приговоренный.(2 из 2).2015.SATRip\Игорь Тальков. Приговоренный.(2 серия из 2).2015.avi
Формат : AVI
Формат/Информация : Audio Video Interleave
Размер файла : 548 Мбайт
Продолжительность : 48 м.
Общий поток : 1568 Кбит/сек
Программа кодирования : VirtualDubMod 1.5.10.3 | www.virtualdub-fr.org || (build 2550/release)
Библиотека кодирования : VirtualDubMod build 2550/release
Видео
Идентификатор : 0
Формат : MPEG-4 Visual
Профиль формата : Advanced Simple@L5
Параметр BVOP формата : 2
Параметр QPel формата : Нет
Параметр GMC формата : Без точки перехода
Параметр матрицы формата : Выборочная
Идентификатор кодека : XVID
Идентификатор кодека/Подсказка : XviD
Продолжительность : 48 м.
Битрейт : 1366 Кбит/сек
Ширина : 720 пикселей
Высота : 400 пикселей
Соотношение сторон : 16:9
Частота кадров : 25,000 кадров/сек
Цветовое пространство : YUV
Субдискретизация насыщенности : 4:2:0
Битовая глубина : 8 бит
Тип развёртки : Прогрессивная
Метод сжатия : С потерями
Бит/(Пиксели*Кадры) : 0.190
Размер потока : 477 Мбайт (87%)
Библиотека кодирования : XviD 73
Аудио
Идентификатор : 1
Формат : AC-3
Формат/Информация : Audio Coding 3
Расширение режима : CM (complete main)
Параметр Endianness формата : Big
Идентификатор кодека : 2000
Продолжительность : 48 м.
Вид битрейта : Постоянный
Битрейт : 192 Кбит/сек
Каналы : 2 канала
Расположение каналов : Front: L R
Частота : 48,0 КГц
Метод сжатия : С потерями
Размер потока : 67,1 Мбайт (12%)
Выравнивание : Разделение по промежуткам
Продолжительность промежутка : 40 мс. (1,00 видеокадр)
Время предзагрузки промежутка : 500 мс.

Скриншоты

[teatrix.ru].t22606.torrent 
Торрент: Зарегистрирован [ 2016-03-21 00:36 ] · 1930B38833146CE71B39467C07258B243BBC4FA2

Скачать .torrent

Скачать

12 KB

Статус: проверено
Скачан: 0 раз
Размер: 1.15 GB
terms.php



Быстрый ответ

Имя:

      
Для отправки сообщений необходимо включить JavaScript
Показать сообщения:    

Текущее время: 10-Дек 00:20

Часовой пояс: UTC + 3


Вы можете начинать темы
Вы можете отвечать на сообщения
Вы не можете редактировать свои сообщения
Вы не можете удалять свои сообщения
Вы не можете голосовать в опросах
Вы не можете прикреплять файлы к сообщениям
Вы можете скачивать файлы