Воспитанник / Foster Child (Данте (Брилльянте) Мендоза / Brillante Mendoza) [2007, Филиппины, Драма, DVDRip] VO + Sub Rus + Оригинал


Статистика раздачи [Обновить пиров]
Размер:  776 MB   |    Зарегистрирован:  9 месяцев 27 дней   |    Скачан:  0 раз

Полного источника не было: Никогда

 
   
 
 
 

[Цитировать]

Воспитанник / Foster Child
Страна: Филиппины
Жанр: Драма
Год выпуска: 2007
Продолжительность: 01:34:06
Перевод: Одноголосый закадровый
Cубтитры: русские, английские
Оригинальная аудиодорожка: Филиппинский, Тагальский, Английский
Режиссер: Данте (Брилльянте) Мендоза / Brillante Mendoza
В ролях: Черри Пи Пикаче, Киер Сегундо, Юджин Доминго, Жиро Манио, Олвин Ютингко, Дэн Альваро
Описание: Душераздирающая в своей простоте история. Тельма, главная героиня, зарабатывает на жизнь тем, что воспитывает приемных детей. Ей передают их новорожденными, а когда исполняется 3-4 года, то забирают для усыновления богатым западным семьям. Несмотря на то, что приемный сын Джон-Джон не первый и не последний ее воспитанник, материнское сердце все так же рвется на части...
На Филлипинах это целый бизнес. Новорожденных сдают в сиротские дома и приемные семьи, а потом перепродают богатым семьям в Америку. Каждый зарабатывает как может.
Сэмпл: http://multi-up.com/1076147
Качество видео: DVDRip
Формат видео: AVI
Видео: 640x352 (1.82:1), 25 fps, XviD build 50 ~913 kbps avg, 0.16 bit/pixel
Аудио 1: 48 kHz, MPEG Layer 3, 2 ch, ~112.00 kbps avg(Русский)
Аудио 2: 48 kHz, MPEG Layer 3, 2 ch, ~112.00 kbps avg(Филиппинский)
Формат субтитров: softsub (SRT)
Доп. информация о субтитрах: русские внешние (albert13), английские

MediaInfo

Общее
Полное имя : F:\С моей озвучкой\Воспитанник\Foster Child.avi
Формат : AVI
Формат/Информация : Audio Video Interleave
Размер файла : 776 Мбайт
Продолжительность : 1 ч. 34 м.
Общий поток : 1153 Кбит/сек
Программа кодирования : VirtualDubModRus 1.5.10.2 (build 2542/release)
Библиотека кодирования : VirtualDubMod build 2542/release
Видео
Идентификатор : 0
Формат : MPEG-4 Visual
Профиль формата : Advanced Simple@L5
Параметр BVOP формата : 2
Параметр QPel формата : Нет
Параметр GMC формата : Без точки перехода
Параметр матрицы формата : Default (MPEG)
Идентификатор кодека : XVID
Идентификатор кодека/Подсказка : XviD
Продолжительность : 1 ч. 34 м.
Битрейт : 915 Кбит/сек
Ширина : 640 пикселей
Высота : 352 пикселя
Соотношение сторон : 16:9
Частота кадров : 25,000 кадров/сек
Цветовое пространство : YUV
Субдискретизация насыщенности : 4:2:0
Битовая глубина : 8 бит
Тип развёртки : Прогрессивная
Метод сжатия : С потерями
Бит/(Пиксели*Кадры) : 0.162
Размер потока : 616 Мбайт (79%)
Библиотека кодирования : XviD 1.2.1 (UTC 2008-12-04)
Аудио #1
Идентификатор : 1
Формат : MPEG Audio
Версия формата : Version 1
Профиль формата : Layer 3
Режим : Joint stereo
Расширение режима : MS Stereo
Идентификатор кодека : 55
Идентификатор кодека/Подсказка : MP3
Продолжительность : 1 ч. 34 м.
Вид битрейта : Постоянный
Битрейт : 112 Кбит/сек
Каналы : 2 канала
Частота : 48,0 КГц
Метод сжатия : С потерями
Размер потока : 75,4 Мбайт (10%)
Выравнивание : Соединение по промежуткам
Продолжительность промежутка : 40 мс. (1,00 видеокадр)
Время предзагрузки промежутка : 504 мс.
Библиотека кодирования : LAME3.96
Аудио #2
Идентификатор : 2
Формат : MPEG Audio
Версия формата : Version 1
Профиль формата : Layer 3
Режим : Joint stereo
Расширение режима : MS Stereo
Идентификатор кодека : 55
Идентификатор кодека/Подсказка : MP3
Продолжительность : 1 ч. 34 м.
Вид битрейта : Постоянный
Битрейт : 112 Кбит/сек
Каналы : 2 канала
Частота : 48,0 КГц
Метод сжатия : С потерями
Размер потока : 75,4 Мбайт (10%)
Выравнивание : Соединение по промежуткам
Продолжительность промежутка : 40 мс. (1,00 видеокадр)
Время предзагрузки промежутка : 504 мс.
Библиотека кодирования : LAME3.98

Скриншоты

[teatrix.ru].t22608.torrent 
Торрент: Зарегистрирован [ 2016-03-21 00:39 ] · 46E23078AF653C8DCD50E0B5C85BEEB8A9EA7B5A

Скачать .torrent

Скачать

16 KB

Статус: проверено
Скачан: 0 раз
Размер: 776 MB
terms.php



Быстрый ответ

Имя:

      
Для отправки сообщений необходимо включить JavaScript
Показать сообщения:    

Текущее время: 18-Янв 00:24

Часовой пояс: UTC + 3


Вы можете начинать темы
Вы можете отвечать на сообщения
Вы не можете редактировать свои сообщения
Вы не можете удалять свои сообщения
Вы не можете голосовать в опросах
Вы не можете прикреплять файлы к сообщениям
Вы можете скачивать файлы