"Послушайте!" Золотой век русской поэзии (Ольга Тутушкина) [2015 г., Литературно-музыкальная композиция, SATRip] Московский международный Дом музыки


Статистика раздачи [Обновить пиров]
Размер:  1.2 GB   |    Зарегистрирован:  8 месяцев 19 дней   |    Скачан:  0 раз

Полного источника не было: Никогда

 
   
 
 
 

[Цитировать]

"Послушайте!" Золотой век русской поэзии Московский международный Дом музыки.
Год выпуска: 2015.
Жанр: Литературно-музыкальная композиция.
Продолжительность: 01:28:28.
Автор и ведущий вечера: Вениамин Смехов.
Стихи звучат в исполнении:
Авангарда Леонтьева, Алексея Верткова, Карэна Бадалова, Александры Урсуляк, Катерины Васильевой, Ольги Лерман, Артема Волобуева.
Описание:
Стихи Александра Пушкина, Евгения Баратынского, Петра Вяземского, Антона Дельвига, Михаила Лермонтова, Николая Некрасова, Федора Тютчева звучат в исполнении известных артистов.
В программе
  • Александр Пушкин
    "19 октября"; "Простите, верные дубравы..."; "Мадонна"; "Брожу ли я вдоль улиц шумных..."; "Из Пиндемонти"; "Вакхическая песня"; "Я памятник воздвиг себе..."; "Если жизнь тебя обманет..."
  • Евгений Баратынский
    "Мы те же сердцем в век иной..."; "Там, где Семёновский полк"; "К Алине"; "Последний поэт"; "К чему невольнику мечтания свободы?.."; "Мой дар убог, и голос мой не громок..."; "Запустение"
  • Антон Дельвиг
    "Дифирамб"; "Четыре возраста фантазии"; "Русская песня"
  • Михаил Лермонтов
    "Молитва"; "Тучи"; "Родина"; "Когда волнуется желтеющая нива..."; "Эпитафия"; "1-е января"; "Дума"; "Пророк"; "Совет"; "Смерть поэта"; "Парус"; "Выхожу одиня на дорогу"; "К"; "Завещание"; "Молитва"("В минуту жизни трудную...")
  • Николай Некрасов
    "Элегия"; "Умру я скоро. Жалкое наследство..."; "Ах, как мило! Ах, как чудно..."; "Мы с тобой бестолковые люди..."; "Ты всегда хороша несравненно..."; "Прости"; "Где твоё личико смуглое..."; "Колыбельная песня"
  • Фёдор Тютчев
    "Умом Россию не понять..."; "Цицерон"; "О, как убийственно мы любим..."; "29 января 1837"
  • Александр Блок
    "Пушкинскому Дому"
  • Булат Окуджава
    "Былое нельзя воротить..."
  • Фрагменты текстов Юрия Лотмана, Ираклия Андроникова, Карла Брюллова, Евгения Баратынского, Петра Вяземского, Александра Пушкина, Осипа Мандельштама Иосифа Бродского, Руфина Дорохова, Виссариона Белинского, Владимира Короленко, Николая Некрасова, Дмитрия Писарева, Александра Блока.
    Дополнительная информация:
    Страна: Россия .
    Выпущено: © ГТРК "Культура".
    Режиссёр телеверсии: Ольга Тутушкина.
    Оператор-постановщик: Владимир Иванов.
    Художник по свету: Андрей Романов.
    В передаче использована музыка Андрея Петрова, Эдуарда Артемьева, Saint-Preux.
    В декорациях сцены использованы живописные работы Ореста Кипренского, Ивана Матюшина, Павла Федотова, Карла Брюллова, Василия Биннемана, Петра Заболотского, Николая Уткина, Кирилла Горбунова, Петра Соколова, Николая Рериха, Николая Хохрякова, Яцека Йерка, Кифера Ансельма.

    Трансляция ГТРК "Культура" в 22:00 08.11.2015 г.
    Релиз
    Рип lesik689.

    Качество видео:...SATRip
    Формат:.................AVI
    Видео:..704x400 (1.76:1), 25 fps, XviD build 73 ~1800 kbps avg, 0.26 bit/pixel
    Аудио:..48 kHz, MPEG Layer 3, 2 ch, ~128.00 kbps avg

    Отчет MI

    General
    Complete name : Poslushajte.Zolotoj.vek.russkoj.poezii.2015.XviD.SATRip.fenixclub.avi
    Format : AVI
    Format/Info : Audio Video Interleave
    File size : 1.20 GiB
    Duration : 1h 28mn
    Overall bit rate : 1 939 Kbps
    Video
    ID : 0
    Format : MPEG-4 Visual
    Format profile : Advanced Simple@L5
    Format settings, BVOP : 2
    Format settings, QPel : No
    Format settings, GMC : No warppoints
    Format settings, Matrix : Default (MPEG)
    Codec ID : XVID
    Codec ID/Hint : XviD
    Duration : 1h 28mn
    Bit rate : 1 801 Kbps
    Width : 704 pixels
    Height : 400 pixels
    Display aspect ratio : 16:9
    Frame rate : 25.000 fps
    Color space : YUV
    Chroma subsampling : 4:2:0
    Bit depth : 8 bits
    Scan type : Progressive
    Compression mode : Lossy
    Bits/(Pixel*Frame) : 0.256
    Stream size : 1.11 GiB (93%)
    Writing library : XviD 73
    Audio
    ID : 1
    Format : MPEG Audio
    Format version : Version 1
    Format profile : Layer 3
    Mode : Joint stereo
    Mode extension : MS Stereo
    Codec ID : 55
    Codec ID/Hint : MP3
    Duration : 1h 28mn
    Bit rate mode : Constant
    Bit rate : 128 Kbps
    Channel(s) : 2 channels
    Sampling rate : 48.0 KHz
    Compression mode : Lossy
    Stream size : 81.0 MiB (7%)
    Alignment : Split accross interleaves
    Interleave, duration : 40 ms (1.00 video frame)
    Interleave, preload duratio : 500 ms.

    Скриншоты


    Альтернативный хост


    [teatrix.ru].t22609.torrent 
    Торрент: Зарегистрирован [ 2016-03-21 00:39 ] · E8D39DAE3CD69B082F4177F293AC85B4C84A372F

    Скачать .torrent

    Скачать

    12 KB

    Статус: проверено
    Скачан: 0 раз
    Размер: 1.2 GB
    terms.php



  • Быстрый ответ

    Имя:

          
    Для отправки сообщений необходимо включить JavaScript
    Показать сообщения:    

    Текущее время: 09-Дек 20:24

    Часовой пояс: UTC + 3


    Вы можете начинать темы
    Вы можете отвечать на сообщения
    Вы не можете редактировать свои сообщения
    Вы не можете удалять свои сообщения
    Вы не можете голосовать в опросах
    Вы не можете прикреплять файлы к сообщениям
    Вы можете скачивать файлы