Жан Кокто. Ложь и правда / Jean Cocteau, mensonges et verites / Jean Cocteau, mensonges et vérités (Ноэль Симсоло / Noel Simsolo / Noël Simsolo) [1996, Франция, документальный, биографический, TVRip] + Sub Rus + Original Fre


Статистика раздачи [Обновить пиров]
Размер:  603 MB   |    Зарегистрирован:  8 месяцев 21 день   |    Скачан:  0 раз

Полного источника не было: Никогда

 
   
 
 
 

[Цитировать]

Жан Кокто. Ложь и правда / Jean Cocteau, mensonges et verites / Jean Cocteau, mensonges et vérités
Страна: Франция
Жанр: документальный, биографический
Год выпуска: 1996
Продолжительность: 01:03:05
Перевод: Субтитры
Cубтитры: русские
Оригинальная аудиодорожка: французский
Режиссер: Ноэль Симсоло / Noel Simsolo / Noël Simsolo
В ролях: Жан Кокто/Jean Cocteau, Анри Алекан/Henri Alekan, Жан Бабиле/Jean Babilée, Жан-Люк Годар/Jean-Luc Godard, Алехандро Ходоровски/Alejandro Jodorowsky, Жан Марэ/Jean Marais, Сириль Робише/Cyril Robichez, Клод Самюэль/Claude Samuel
Описание: Жан Кокто… У каждого – свой Кокто: у кого-то – мастер на все руки (интонация при произнесении этого словосочетания от восхищённой до презрительной – на выбор), у кого-то – великий поэт, у кого-то – коллаборационист, у кого-то – попавший в верное окружение виршеплёт и рисовальщик средней руки. Одно можно утверждать смело – Кокто никого не оставляет равнодушным.
К Кокто можно относиться по-разному, но нельзя не восхищаться его энергией, его напором мышления, той силой образов, которые он создавал, слов, которые он рождал. В фильме Ноэля Симсоло каждый откроет зрителю своего Кокто: Годар вспомнит «банду четырёх» и серые мундиры Оккупации, Ходоровски – Кокто-«сюрреалиста», Робише – театрального Кокто, Бабиле – балетного. Марэ вспомнит, как Кокто разделялся при письме на мыслителя и секретаря, выглядя при этом как убийца. Симсоло складывает из этих высказываний чёткий образ поэта – но не сухаря, который марает бумагу и бдит в ожидании муз, а кого-то вроде живого взрыва, осколки которого застревают глубоко внутри рисования, театра, балета, кинематографа и тревожат эти искусства.
Доп. информация: Перевод – daft-digger, тайминг – alex-kin.
Файл взят с Карагарги, за что благодарим OrionZulu.
Предупреждение!
В верхнем правом углу кадра – логотип toute L’HISTOIRE.
Сэмпл: http://multi-up.com/1072890
Качество видео: TVRip
Формат видео: AVI
Видео: XviD build 50 at 1137 kbps, 0.15 bit/pixel, 640x480 (1.33:1) at 25 fps
Аудио: MPEG Layer 3 at 192.00 kbps avg, 2 ch, 48 kHz
Формат субтитров: softsub (SRT)

MediaInfo

Формат : AVI
Формат/Информация : Audio Video Interleave
Размер файла : 603 Мбайт
Продолжительность : 1 ч. 3 м.
Общий поток : 1336 Кбит/сек
Программа кодирования : VirtualDubMod 1.5.4.1 (build 2178/release)
Библиотека кодирования : VirtualDubMod build 2178/release
Видео
Идентификатор : 0
Формат : MPEG-4 Visual
Профиль формата : Advanced Simple@L5
Параметр BVOP формата : 1
Параметр QPel формата : Нет
Параметр GMC формата : Без точки перехода
Параметр матрицы формата : Выборочная
Идентификатор кодека : XVID
Идентификатор кодека/Подсказка : XviD
Продолжительность : 1 ч. 3 м.
Битрейт : 1137 Кбит/сек
Ширина : 640 пикс.
Высота : 480 пикс.
Соотношение сторон : 4:3
Частота кадров : 25,000 кадр/сек
Цветовое пространство : YUV
Подвыборка цветности : 4:2:0
Битовая глубина : 8 бит
Тип развёртки : Прогрессивная
Метод сжатия : С потерями
Бит/(Пиксели*Кадры) : 0.148
Размер потока : 513 Мбайт (85%)
Библиотека кодирования : XviD 1.2.1 (UTC 2008-12-04)
Аудио
Идентификатор : 1
Формат : MPEG Audio
Версия формата : Version 1
Профиль формата : Layer 3
Режим : Joint stereo
Расширение режима : MS Stereo
Идентификатор кодека : 55
Идентификатор кодека/Подсказка : MP3
Продолжительность : 1 ч. 3 м.
Вид битрейта : Постоянный
Битрейт : 192 Кбит/сек
Канал(ы) : 2 канала(ов)
Частота : 48,0 КГц
Метод сжатия : С потерями
Задержка видео : 48 мс.
Размер потока : 86,7 Мбайт (14%)
Выравнивание : Соединение по промежуткам
Продолжительность промежутка : 80 мс. (2,00 видеокадров)
Время предзагрузки промежутка : 504 ms
Библиотека кодирования : LAME3.98r
Настройки программы : -m j -V 4 -q 2 -lowpass 18.6 -b 192

Фрагмент субтитров

1
00:00:01,000 --> 00:00:05,000
ЖАН КОКТО:
ЛОЖЬ И ИСТИНА
2
00:00:06,880 --> 00:00:07,480
Портрет
3
00:00:07,720 --> 00:00:10,320
Жан Кокто: Ложь и истина
4
00:00:10,600 --> 00:00:11,520
прямо сейчас.
5
00:00:34,280 --> 00:00:40,960
Жан Кокто: Ложь и истина
6
00:00:41,000 --> 00:00:45,600
Фильм Ноэля Симсоло
7
00:00:51,720 --> 00:00:55,880
Ненавижу легкомыслие. Я считаю
его преступлением против духа.
8
00:00:56,286 --> 00:00:58,579
И я ненавижу фантазию.
9
00:00:58,787 --> 00:01:00,745
Меня всегда считали фантазером.
10
00:01:00,954 --> 00:01:05,995
Два года назад "Ларусс"
описал Рембо как фантазера.
11
00:01:06,245 --> 00:01:08,787
Но теперь нет.
Я унаследовал это определение.
12
00:01:08,954 --> 00:01:14,371
Люди считают поэтов фантазерами.
Но с поэтами все наоборот.
13
00:01:19,538 --> 00:01:23,664
В течение его жизни, Жана Кокто
любили и ненавидели в равной мере.
14
00:01:23,830 --> 00:01:26,872
Он производил впечатление человека,
часто находившегося в центре внимания,
15
00:01:27,164 --> 00:01:29,372
дилетанта, мастера на все руки,
16
00:01:29,622 --> 00:01:33,790
со склонностью к показным скандалам
и высшему обществу.
17
00:01:34,247 --> 00:01:39,247
Его питало ненасытное тщеславие,
заставлявшее подменять понятия
18
00:01:39,456 --> 00:01:42,916
без колебаний, добиваясь
прекрасных результатов,
19
00:01:43,082 --> 00:01:48,122
будь то романы, поэзия, музыка,
рисование, театр или кино.
20
00:01:49,206 --> 00:01:53,248
Не желаете ли узнать
настоящую драму поэзии?

Скриншот c названием фильма

Скриншоты

[teatrix.ru].t22614.torrent 
Торрент: Зарегистрирован [ 2016-03-21 00:39 ] · C56C97D14A241DBC122A1A105C8AE3CFD74114E0

Скачать .torrent

Скачать

12 KB

Статус: проверено
Скачан: 0 раз
Размер: 603 MB
terms.php



Быстрый ответ

Имя:

      
Для отправки сообщений необходимо включить JavaScript
Показать сообщения:    

Текущее время: 11-Дек 07:08

Часовой пояс: UTC + 3


Вы можете начинать темы
Вы можете отвечать на сообщения
Вы не можете редактировать свои сообщения
Вы не можете удалять свои сообщения
Вы не можете голосовать в опросах
Вы не можете прикреплять файлы к сообщениям
Вы можете скачивать файлы