Феликс и Мейра / Félix et Meira / Felix and Meira (Максим Жиру / Maxime Giroux) [2014, Канада, Драма, мелодрама, DVDRip] + Sub Rus + Original Fre


Статистика раздачи [Обновить пиров]
Размер:  1.46 GB   |    Зарегистрирован:  10 месяцев   |    Скачан:  1 раз

Полного источника не было: 7 месяцев 2 дня

 
   
 
 
 

[Цитировать]

Феликс и Мейра / Félix et Meira / Felix and Meira
Страна: Канада
Жанр: Драма, мелодрама
Год выпуска: 2014
Продолжительность: 01:45:59
Перевод: Субтитры creo140
Cубтитры: русские
Оригинальная аудиодорожка: французский, идиш, иврит, английский, испанский, итальянский,
Режиссер: Максим Жиру / Maxime Giroux
В ролях: Мартин Дюбрёй, Хадас Ярон, Анн-Элизабет Боссе, Бенуа Джирард, Мелисса Вайз, Мишель Голд
Описание: Это фильм о тех, кто почувствовал себя в ловушке собственных отношений, да и самой жизни. Мейра – жена и мать, она принадлежит ортодоксальной иудейской общине, где чувствует себя чужой. Ей нравится слушать соул и рисовать, она не хочет больше рожать детей и принимает противозачаточные таблетки. И все это она делает тайно, в противном случае ей самой, её мужу и дочери грозит позор. Однажды, она знакомится с Феликсом, который также ищет свое место в жизни.
Доп. информация: http://www.kinopoisk.ru/film/842297/
http://www.imdb.com/title/tt3685218/
Сэмпл: http://multi-up.com/1076277
Качество видео: DVDRip
Формат видео: AVI
Видео: Xvid 720x304 23.976fps 1516kbps
Аудио: Dolby AC3 48000Hz 6ch 448kbps
Формат субтитров: softsub (SRT)

Фрагмент субтитров

311
00:43:07,855 --> 00:43:09,528
Привет!
312
00:43:24,838 --> 00:43:26,545
Мейра.
313
00:43:26,607 --> 00:43:29,486
Подожди! Подожди.
314
00:43:30,878 --> 00:43:34,052
Что случилось с тобой?
Зачем ты привёл меня сюда?
315
00:43:35,215 --> 00:43:36,291
Я не знаю, что сказать.
316
00:43:36,315 --> 00:43:37,991
Это моя сестра, я не знал,
что она зайдёт сюда.
317
00:43:40,454 --> 00:43:42,627
Ты играешь со мной?
318
00:43:42,690 --> 00:43:44,863
Нет, нет, нет!
Я не играю с тобой.
319
00:43:45,526 --> 00:43:47,767
Ты солгал мне!
Ты сказал, что мы будем одни.
320
00:43:47,828 --> 00:43:50,809
Зачем ты это сделал?
Зачем ты солгал?
321
00:43:50,864 --> 00:43:52,537
Ты же знаешь,
что это неправда.
322
00:43:54,335 --> 00:43:58,306
Извини меня,
мне действительно очень жаль.
323
00:44:22,629 --> 00:44:25,769
Я не знаю, что ты задумала и поверь,
я бы предпочёл не знать этого.

MediaInfo

Format : AVI
Format/Info : Audio Video Interleave
File size : 1.46 GiB
Duration : 1h 45mn
Overall bit rate : 1 973 Kbps
Writing application : VirtualDubMod 1.5.10.3 | www.virtualdub-fr.org || (build 2550/release)
Writing library : VirtualDubMod build 2550/release
Video
ID : 0
Format : MPEG-4 Visual
Format profile : Advanced Simple@L5
Format settings, BVOP : 1
Format settings, QPel : No
Format settings, GMC : No warppoints
Format settings, Matrix : Default (MPEG)
Codec ID : XVID
Codec ID/Hint : XviD
Duration : 1h 45mn
Bit rate : 1 516 Kbps
Width : 720 pixels
Height : 304 pixels
Display aspect ratio : 2.35:1
Frame rate : 23.976 fps
Color space : YUV
Chroma subsampling : 4:2:0
Bit depth : 8 bits
Scan type : Progressive
Compression mode : Lossy
Bits/(Pixel*Frame) : 0.289
Stream size : 1.12 GiB (77%)
Writing library : XviD 1.2.1 (UTC 2008-12-04)
Audio
ID : 1
Format : AC-3
Format/Info : Audio Coding 3
Mode extension : CM (complete main)
Format settings, Endianness : Big
Codec ID : 2000
Duration : 1h 45mn
Bit rate mode : Constant
Bit rate : 448 Kbps
Channel(s) : 6 channels
Channel positions : Front: L C R, Side: L R, LFE
Sampling rate : 48.0 KHz
Compression mode : Lossy
Stream size : 340 MiB (23%)
Alignment : Split accross interleaves
Interleave, duration : 42 ms (1.00 video frame)
Interleave, preload duration : 500 ms

Скриншот c названием фильма

[teatrix.ru].t22615.torrent 
Торрент: Зарегистрирован [ 2016-03-21 00:39 ] · B070A645EADDE2E9514B09000916466F796E3052

Скачать .torrent

Скачать

15 KB

Статус: проверено
Скачан: 1 раз
Размер: 1.46 GB
terms.php



Быстрый ответ

Имя:

      
Для отправки сообщений необходимо включить JavaScript
Показать сообщения:    

Текущее время: 21-Янв 11:38

Часовой пояс: UTC + 3


Вы можете начинать темы
Вы можете отвечать на сообщения
Вы не можете редактировать свои сообщения
Вы не можете удалять свои сообщения
Вы не можете голосовать в опросах
Вы не можете прикреплять файлы к сообщениям
Вы можете скачивать файлы