(Opera) Jules Massenet - Werther / Жюль Массне - Вертер (Vladimir Jurowski / Владимир Юровский; Ramon Vargas, Vesselina Kasarova, Dawn Kotoski, Christopher Schaldenbrand), 1998 - Studio recording / 1999, FLAC (tracks), lossless


 

[Цитировать]

Jules Massenet - Werther / Жюль Массне - Вертер (Wladimir Jurowski / Владимир Юровский; Ramón Vargas, Vesselina Kasarova, Dawn Kotoski, Christopher Schaldenbrand)
Жанр: Opera
Страна-производитель диска: США
Год издания диска: 1999
Издатель (лейбл): RCA
Дата записи: 1998
Аудиокодек: FLAC
Тип рипа: tracks
Битрейт аудио: lossless
Продолжительность: 130:06
Источник: релизер (Davide)
Исполнители:
Werther - Ramón Vargas,
Charlotte - Vesselina Kasarova,
Sophie - Dawn Kotoski,
Albert - Christopher Schaldenbrand,
Le Bailli - Umberto Chiummo,
Johann - Roman Trekel,
Schmidt - Christoph Genz,
Brühlmann - Frank Baer,
Kätchen - Arndis Halla.
Conductor - Vladimir Jurowski,
Orchestra of Deutsches Sinfonieorchester,
Chorus of Berliner Knabenchor.
Recorded at Jesus-Christus-Kirche, Berlin-Dahlem, Germany, June 16 - June 24, 1998.

Лог создания рипаЛог создания рипа CD 1

Exact Audio Copy V1.0 beta 3 from 29. August 2011
EAC extraction logfile from 12. November 2015, 14:54
Vladimir Jurowski, Deutsches-Symphonie-Orchester Berlin / Werther - CD1
Used drive : hp DVDRW DU8A5SHL Adapter: 0 ID: 0
Read mode : Secure
Utilize accurate stream : Yes
Defeat audio cache : Yes
Make use of C2 pointers : No
Read offset correction : 6
Overread into Lead-In and Lead-Out : No
Fill up missing offset samples with silence : Yes
Delete leading and trailing silent blocks : No
Null samples used in CRC calculations : Yes
Used interface : Native Win32 interface for Win NT & 2000
Gap handling : Appended to previous track
Used output format : User Defined Encoder
Selected bitrate : 768 kBit/s
Quality : High
Add ID3 tag : No
Command line compressor : C:\Program Files (x86)\Exact Audio Copy\FLAC\FLAC.EXE
Additional command line options : -6 -V -T "ARTIST=%artist%" -T "TITLE=%title%" -T "ALBUM=%albumtitle%" -T "DATE=%year%" -T "TRACKNUMBER=%tracknr%" -T "GENRE=%genre%" -T "COMMENT=%comment%" -T "BAND=%albuminterpret%" -T "ALBUMARTIST=%albuminterpret%" -T "COMPOSER=%composer%" %haslyrics%--tag-from-file=LYRICS="%lyricsfile%"%haslyrics% -T "DISCNUMBER=%cdnumber%" -T "TOTALDISCS=%totalcds%" -T "TOTALTRACKS=%numtracks%" %hascover%--picture="%coverfile%"%hascover% %source% -o %dest%
TOC of the extracted CD
Track | Start | Length | Start sector | End sector
---------------------------------------------------------
1 | 0:00.00 | 4:10.27 | 0 | 18776
2 | 4:10.27 | 1:55.73 | 18777 | 27474
3 | 6:06.25 | 5:23.50 | 27475 | 51749
4 | 11:30.00 | 4:38.30 | 51750 | 72629
5 | 16:08.30 | 3:58.22 | 72630 | 90501
6 | 20:06.52 | 4:54.50 | 90502 | 112601
7 | 25:01.27 | 5:46.35 | 112602 | 138586
8 | 30:47.62 | 3:23.58 | 138587 | 153869
9 | 34:11.45 | 3:30.40 | 153870 | 169659
10 | 37:42.10 | 3:54.20 | 169660 | 187229
11 | 41:36.30 | 1:14.10 | 187230 | 192789
12 | 42:50.40 | 4:42.55 | 192790 | 213994
13 | 47:33.20 | 2:33.37 | 213995 | 225506
14 | 50:06.57 | 3:59.35 | 225507 | 243466
15 | 54:06.17 | 3:45.60 | 243467 | 260401
16 | 57:52.02 | 3:15.15 | 260402 | 275041
17 | 61:07.17 | 7:24.13 | 275042 | 308354
18 | 68:31.30 | 3:56.22 | 308355 | 326076
19 | 72:27.52 | 1:38.00 | 326077 | 333426
Track 1
Filename G:\BLOGGER\AA CD RIPPATI\Massenet Werther Jurowski 1998\CD1\01 Prélude.wav
Peak level 97.7 %
Extraction speed 2.6 X
Track quality 100.0 %
Copy CRC 7BDCE7E6
Accurately ripped (confidence 7) [CAB1B36E] (AR v2)
Copy OK
Track 2
Filename G:\BLOGGER\AA CD RIPPATI\Massenet Werther Jurowski 1998\CD1\02 Act 1- Assez! Assez! M'écoutera-t-on cette fois.wav
Peak level 66.2 %
Extraction speed 2.6 X
Track quality 100.0 %
Copy CRC A40C0C95
Accurately ripped (confidence 7) [3E9FE4AC] (AR v2)
Copy OK
Track 3
Filename G:\BLOGGER\AA CD RIPPATI\Massenet Werther Jurowski 1998\CD1\03 Bravo pour les enfants.wav
Peak level 99.9 %
Extraction speed 2.9 X
Track quality 99.9 %
Copy CRC 484502B9
Accurately ripped (confidence 7) [498BDB33] (AR v2)
Copy OK
Track 4
Filename G:\BLOGGER\AA CD RIPPATI\Massenet Werther Jurowski 1998\CD1\04 Alors, c'est bien ici la maison du bailli.wav
Peak level 53.1 %
Extraction speed 3.5 X
Track quality 100.0 %
Copy CRC EE9BD685
Accurately ripped (confidence 7) [ED7C8CD5] (AR v2)
Copy OK
Track 5
Filename G:\BLOGGER\AA CD RIPPATI\Massenet Werther Jurowski 1998\CD1\05 Jésus vient de naître!.wav
Peak level 62.7 %
Extraction speed 3.8 X
Track quality 100.0 %
Copy CRC F617A384
Accurately ripped (confidence 7) [BBE8993C] (AR v2)
Copy OK
Track 6
Filename G:\BLOGGER\AA CD RIPPATI\Massenet Werther Jurowski 1998\CD1\06 Arrivez donc, Brühlmann!.wav
Peak level 66.1 %
Extraction speed 3.9 X
Track quality 100.0 %
Copy CRC F30D4524
Accurately ripped (confidence 7) [763E86EB] (AR v2)
Copy OK
Track 7
Filename G:\BLOGGER\AA CD RIPPATI\Massenet Werther Jurowski 1998\CD1\07 Sophie!...Albert!.wav
Peak level 65.5 %
Extraction speed 4.4 X
Track quality 100.0 %
Copy CRC 5D48266B
Accurately ripped (confidence 7) [6BC9F736] (AR v2)
Copy OK
Track 8
Filename G:\BLOGGER\AA CD RIPPATI\Massenet Werther Jurowski 1998\CD1\08 Il faut nous séparer.wav
Peak level 43.0 %
Extraction speed 4.3 X
Track quality 100.0 %
Copy CRC A6682FD4
Accurately ripped (confidence 7) [A8A43B92] (AR v2)
Copy OK
Track 9
Filename G:\BLOGGER\AA CD RIPPATI\Massenet Werther Jurowski 1998\CD1\09 Mais vous ne savez rien de moi!.wav
Peak level 65.2 %
Extraction speed 4.3 X
Track quality 100.0 %
Copy CRC 799A54C6
Accurately ripped (confidence 7) [2BCE5CF1] (AR v2)
Copy OK
Track 10
Filename G:\BLOGGER\AA CD RIPPATI\Massenet Werther Jurowski 1998\CD1\10 Rêve! Extase! Bonheur!.wav
Peak level 97.4 %
Extraction speed 4.4 X
Track quality 100.0 %
Copy CRC 2FB3F469
Accurately ripped (confidence 7) [0BA3DFDD] (AR v2)
Copy OK
Track 11
Filename G:\BLOGGER\AA CD RIPPATI\Massenet Werther Jurowski 1998\CD1\11 Act 2- Prélude.wav
Peak level 42.5 %
Extraction speed 3.6 X
Track quality 100.0 %
Copy CRC A681CEE8
Accurately ripped (confidence 7) [0E76710D] (AR v2)
Copy OK
Track 12
Filename G:\BLOGGER\AA CD RIPPATI\Massenet Werther Jurowski 1998\CD1\12 Vivat Bacchus! Semper vivat!.wav
Peak level 69.5 %
Extraction speed 4.9 X
Track quality 100.0 %
Copy CRC ED36279C
Accurately ripped (confidence 7) [EBB3729D] (AR v2)
Copy OK
Track 13
Filename G:\BLOGGER\AA CD RIPPATI\Massenet Werther Jurowski 1998\CD1\13 Trois mois! Voici trois mois que nous sommes unis!.wav
Peak level 56.4 %
Extraction speed 4.5 X
Track quality 100.0 %
Copy CRC 5A697133
Accurately ripped (confidence 7) [91D569B3] (AR v2)
Copy OK
Track 14
Filename G:\BLOGGER\AA CD RIPPATI\Massenet Werther Jurowski 1998\CD1\14 Un autre est son époux!.wav
Peak level 88.6 %
Extraction speed 5.0 X
Track quality 100.0 %
Copy CRC 7C520E3A
Accurately ripped (confidence 7) [76B33164] (AR v2)
Copy OK
Track 15
Filename G:\BLOGGER\AA CD RIPPATI\Massenet Werther Jurowski 1998\CD1\15 Au bonheur dont mon âme est pleine.wav
Peak level 42.3 %
Extraction speed 5.0 X
Track quality 100.0 %
Copy CRC 8C66F6E5
Accurately ripped (confidence 7) [941E6471] (AR v2)
Copy OK
Track 16
Filename G:\BLOGGER\AA CD RIPPATI\Massenet Werther Jurowski 1998\CD1\16 Frère, voyez le beau bouquet!.wav
Peak level 51.1 %
Extraction speed 3.8 X
Track quality 99.9 %
Copy CRC 4C378788
Accurately ripped (confidence 7) [CB519819] (AR v2)
Copy OK
Track 17
Filename G:\BLOGGER\AA CD RIPPATI\Massenet Werther Jurowski 1998\CD1\17 Ai-je dit vrai.wav
Peak level 87.5 %
Extraction speed 5.6 X
Track quality 100.0 %
Copy CRC 0481FCF1
Accurately ripped (confidence 7) [DAE43C2A] (AR v2)
Copy OK
Track 18
Filename G:\BLOGGER\AA CD RIPPATI\Massenet Werther Jurowski 1998\CD1\18 Qui, ce qu'elle m'ordonne.wav
Peak level 96.2 %
Extraction speed 5.5 X
Track quality 100.0 %
Copy CRC 994965FD
Accurately ripped (confidence 7) [EA99FBBF] (AR v2)
Copy OK
Track 19
Filename G:\BLOGGER\AA CD RIPPATI\Massenet Werther Jurowski 1998\CD1\19 Mais venez donc! Le cortège s'approche.wav
Peak level 88.5 %
Extraction speed 4.4 X
Track quality 100.0 %
Copy CRC E03010F7
Accurately ripped (confidence 7) [EDE4E055] (AR v2)
Copy OK
All tracks accurately ripped
No errors occurred
End of status report

Лог создания рипа CD 2

Exact Audio Copy V1.0 beta 3 from 29. August 2011
EAC extraction logfile from 12. November 2015, 15:13
Vladimir Jurowski, Deutsches-Symphonie-Orchester Berlin / Werther - CD2
Used drive : hp DVDRW DU8A5SHL Adapter: 0 ID: 0
Read mode : Secure
Utilize accurate stream : Yes
Defeat audio cache : Yes
Make use of C2 pointers : No
Read offset correction : 6
Overread into Lead-In and Lead-Out : No
Fill up missing offset samples with silence : Yes
Delete leading and trailing silent blocks : No
Null samples used in CRC calculations : Yes
Used interface : Native Win32 interface for Win NT & 2000
Gap handling : Appended to previous track
Used output format : User Defined Encoder
Selected bitrate : 768 kBit/s
Quality : High
Add ID3 tag : No
Command line compressor : C:\Program Files (x86)\Exact Audio Copy\FLAC\FLAC.EXE
Additional command line options : -6 -V -T "ARTIST=%artist%" -T "TITLE=%title%" -T "ALBUM=%albumtitle%" -T "DATE=%year%" -T "TRACKNUMBER=%tracknr%" -T "GENRE=%genre%" -T "COMMENT=%comment%" -T "BAND=%albuminterpret%" -T "ALBUMARTIST=%albuminterpret%" -T "COMPOSER=%composer%" %haslyrics%--tag-from-file=LYRICS="%lyricsfile%"%haslyrics% -T "DISCNUMBER=%cdnumber%" -T "TOTALDISCS=%totalcds%" -T "TOTALTRACKS=%numtracks%" %hascover%--picture="%coverfile%"%hascover% %source% -o %dest%
TOC of the extracted CD
Track | Start | Length | Start sector | End sector
---------------------------------------------------------
1 | 0:00.00 | 5:09.50 | 0 | 23224
2 | 5:09.50 | 4:28.07 | 23225 | 43331
3 | 9:37.57 | 1:33.50 | 43332 | 50356
4 | 11:11.32 | 2:02.58 | 50357 | 59564
5 | 13:14.15 | 4:03.12 | 59565 | 77801
6 | 17:17.27 | 2:39.25 | 77802 | 89751
7 | 19:56.52 | 4:43.68 | 89752 | 111044
8 | 24:40.45 | 5:33.70 | 111045 | 136089
9 | 30:14.40 | 2:36.00 | 136090 | 147789
10 | 32:50.40 | 2:52.37 | 147790 | 160726
11 | 35:43.02 | 5:04.03 | 160727 | 183529
12 | 40:47.05 | 5:33.05 | 183530 | 208509
13 | 46:20.10 | 3:51.70 | 208510 | 225904
14 | 50:12.05 | 1:46.10 | 225905 | 233864
15 | 51:58.15 | 4:22.25 | 233865 | 253539
Track 1
Filename G:\BLOGGER\AA CD RIPPATI\Massenet Werther Jurowski 1998\CD2\01 Act 3- Prélude.wav
Peak level 84.6 %
Extraction speed 2.3 X
Track quality 100.0 %
Copy CRC E552BACC
Accurately ripped (confidence 7) [2AE0142F] (AR v2)
Copy OK
Track 2
Filename G:\BLOGGER\AA CD RIPPATI\Massenet Werther Jurowski 1998\CD2\02 Je vous écris de ma petite chambre.wav
Peak level 98.8 %
Extraction speed 3.0 X
Track quality 100.0 %
Copy CRC 2BC73E50
Accurately ripped (confidence 7) [9AF4C665] (AR v2)
Copy OK
Track 3
Filename G:\BLOGGER\AA CD RIPPATI\Massenet Werther Jurowski 1998\CD2\03 Bonjour, grande soeur!.wav
Peak level 58.3 %
Extraction speed 2.6 X
Track quality 100.0 %
Copy CRC BE409793
Accurately ripped (confidence 7) [AFE51263] (AR v2)
Copy OK
Track 4
Filename G:\BLOGGER\AA CD RIPPATI\Massenet Werther Jurowski 1998\CD2\04 Ah! Le rire est béni!.wav
Peak level 99.9 %
Extraction speed 2.9 X
Track quality 100.0 %
Copy CRC 7239D563
Accurately ripped (confidence 7) [CEDCE0CF] (AR v2)
Copy OK
Track 5
Filename G:\BLOGGER\AA CD RIPPATI\Massenet Werther Jurowski 1998\CD2\05 Va! Laisse couler mes larmes.wav
Peak level 99.9 %
Extraction speed 3.4 X
Track quality 100.0 %
Copy CRC ADCEAD32
Accurately ripped (confidence 7) [BC6F6EBD] (AR v2)
Copy OK
Track 6
Filename G:\BLOGGER\AA CD RIPPATI\Massenet Werther Jurowski 1998\CD2\06 Ah! Mon courage m'abandonne!.wav
Peak level 97.3 %
Extraction speed 2.8 X
Track quality 99.9 %
Copy CRC 4C880D3C
Accurately ripped (confidence 7) [3FAA1CBC] (AR v2)
Copy OK
Track 7
Filename G:\BLOGGER\AA CD RIPPATI\Massenet Werther Jurowski 1998\CD2\07 Qui, c'est moi! Je reviens.wav
Peak level 61.6 %
Extraction speed 3.9 X
Track quality 100.0 %
Copy CRC AF3DB2B4
Accurately ripped (confidence 7) [A48E781C] (AR v2)
Copy OK
Track 8
Filename G:\BLOGGER\AA CD RIPPATI\Massenet Werther Jurowski 1998\CD2\08 Toute mon âme est là!.wav
Peak level 97.9 %
Extraction speed 3.3 X
Track quality 99.9 %
Copy CRC 7B063880
Accurately ripped (confidence 7) [77F28A37] (AR v2)
Copy OK
Track 9
Filename G:\BLOGGER\AA CD RIPPATI\Massenet Werther Jurowski 1998\CD2\09 Ah! Moi! Moi! Dans ses bras!.wav
Peak level 96.8 %
Extraction speed 3.1 X
Track quality 99.9 %
Copy CRC EA6D31D6
Accurately ripped (confidence 7) [844E03F1] (AR v2)
Copy OK
Track 10
Filename G:\BLOGGER\AA CD RIPPATI\Massenet Werther Jurowski 1998\CD2\10 Werther est de retour.wav
Peak level 76.1 %
Extraction speed 4.1 X
Track quality 100.0 %
Copy CRC FF8D53D1
Accurately ripped (confidence 7) [9ED05126] (AR v2)
Copy OK
Track 11
Filename G:\BLOGGER\AA CD RIPPATI\Massenet Werther Jurowski 1998\CD2\11 Act 4- Symphonie.wav
Peak level 94.4 %
Extraction speed 4.7 X
Track quality 100.0 %
Copy CRC 63343548
Accurately ripped (confidence 7) [8CE64F1C] (AR v2)
Copy OK
Track 12
Filename G:\BLOGGER\AA CD RIPPATI\Massenet Werther Jurowski 1998\CD2\12 Werther!...Rien!.wav
Peak level 95.7 %
Extraction speed 4.9 X
Track quality 100.0 %
Copy CRC 1DF36CB9
Accurately ripped (confidence 7) [B827DD28] (AR v2)
Copy OK
Track 13
Filename G:\BLOGGER\AA CD RIPPATI\Massenet Werther Jurowski 1998\CD2\13 Et moi, Werther, et moi je t'aime!.wav
Peak level 81.8 %
Extraction speed 4.9 X
Track quality 100.0 %
Copy CRC E15A68EB
Accurately ripped (confidence 7) [A8F8DE42] (AR v2)
Copy OK
Track 14
Filename G:\BLOGGER\AA CD RIPPATI\Massenet Werther Jurowski 1998\CD2\14 Noël! Noël! Noël!.wav
Peak level 95.6 %
Extraction speed 4.3 X
Track quality 100.0 %
Copy CRC 48E25B68
Accurately ripped (confidence 7) [BAACB245] (AR v2)
Copy OK
Track 15
Filename G:\BLOGGER\AA CD RIPPATI\Massenet Werther Jurowski 1998\CD2\15 Ah! Ses yeux se ferment.wav
Peak level 99.9 %
Extraction speed 5.0 X
Track quality 100.0 %
Copy CRC B25F49D8
Accurately ripped (confidence 7) [EB5AA009] (AR v2)
Copy OK
All tracks accurately ripped
No errors occurred
End of status report

Треклист

Disc 1:
1. Prelude
Act I:
2. "Assez! Assez! M'écoutera-t-on cette fois?"
3. "Bravo pour les enfants!"
4. "Alors, c'est bien ici la maison du bailli?"
5. "Jésus vient de naître!"
6. "Arrivez donc, Brühlmann!"
7. "Sophie!... Albert!"
8. "Il faut nous séparer"
9. "Mais vous ne savez rien de moi!"
10. "Rêve! Extase! Bonheur!"
Act II:
11. Prelude
12. "Vivat Bacchus! Semper vivat!"
13. "Trois mois! Voici trois mois que nous sommes unis!"
14. "Un autre est son époux!"
15. "Au bonheur dont mon âme est pleine"
16. "Frère, voyez le beau bouquet!"
17. "Ai-je dit vrai?"
18. "Oui, ce qu'elle m'ordonne"
19. "Mais venez donc! Le cortège s'approche"
Disc 2:
Act III:
1. Prelude
2. "Je vous écris de ma petite chambre"
3. "Bonjour, grande soeur!"
4. "Ah! Le rire est béni!"
5. "Va! Laisse couler mes larmes"
6. "Ah! Mon courage m'abandonne!"
7. "Oui, c'est moi! Je reviens"
8. "Toute mon âme est là!"
9. "Ah! Moi! Moi! Dans ses bras!"
10. "Werther est et retour"
Act IV:
11. Symphony
12. "Werther!... Rien!"
13. "Et moi, Werther, et moi je t'aime!"
14. "Noël! Noël! Noël!"
15. "Ah! Ses yeux se ferment"



Показать сообщения:    

Текущее время: 05-Дек 19:37

Часовой пояс: UTC + 3


Вы не можете начинать темы
Вы не можете отвечать на сообщения
Вы не можете редактировать свои сообщения
Вы не можете удалять свои сообщения
Вы не можете голосовать в опросах
Вы не можете прикреплять файлы к сообщениям
Вы не можете скачивать файлы