(Opera) Jules Massenet - Werther / Жюль Массне - Вертер (Kent Nagano; Anne Sofie von Otter, Jerry Hadley, Dawn Upshaw, Gerard Theruel), 1996 - Studio recording, FLAC (tracks), lossless


 

[Цитировать]

Jules Massenet - Werther / Жюль Массне - Вертер (Kent Nagano; Anne Sofie von Otter, Jerry Hadley, Dawn Upshaw, Gérard Théruel)
Жанр: Opera
Страна-производитель диска: Франция
Год издания диска: 1996
Издатель (лейбл): Erato
Дата записи: 1996
Аудиокодек: FLAC
Тип рипа: tracks
Битрейт аудио: lossless
Продолжительность: 119:48
Источник: релизер (Davide)
Исполнители:
Charlotte - Anne Sofie von Otter,
Werther - Jerry Hadley,
Sophie - Dawn Upshaw,
Albert - Gérard Théruel,
Le Bailli - Jean-Marie Frémeau
Johann - Frédéric Caton,
Schmidt - Gilles Ragon,
Brühlmann - Gilles Ragon,
Kätchen - Geneviève Marchand.
Conductor - Kent Nagano,
Orchestra and Chorus of L'Opéra National de Lyon.
Recorded at Opéra National de Lyon, October 24 - November 3, 1995.

Лог создания рипаЛог создания рипа CD 1

Exact Audio Copy V1.0 beta 3 from 29. August 2011
EAC extraction logfile from 12. November 2015, 13:59
Kent Nagano, Opéra National de Lyon / Werther - CD1
Used drive : hp DVDRW DU8A5SHL Adapter: 0 ID: 0
Read mode : Secure
Utilize accurate stream : Yes
Defeat audio cache : Yes
Make use of C2 pointers : No
Read offset correction : 6
Overread into Lead-In and Lead-Out : No
Fill up missing offset samples with silence : Yes
Delete leading and trailing silent blocks : No
Null samples used in CRC calculations : Yes
Used interface : Native Win32 interface for Win NT & 2000
Gap handling : Appended to previous track
Used output format : User Defined Encoder
Selected bitrate : 768 kBit/s
Quality : High
Add ID3 tag : No
Command line compressor : C:\Program Files (x86)\Exact Audio Copy\FLAC\FLAC.EXE
Additional command line options : -6 -V -T "ARTIST=%artist%" -T "TITLE=%title%" -T "ALBUM=%albumtitle%" -T "DATE=%year%" -T "TRACKNUMBER=%tracknr%" -T "GENRE=%genre%" -T "COMMENT=%comment%" -T "BAND=%albuminterpret%" -T "ALBUMARTIST=%albuminterpret%" -T "COMPOSER=%composer%" %haslyrics%--tag-from-file=LYRICS="%lyricsfile%"%haslyrics% -T "DISCNUMBER=%cdnumber%" -T "TOTALDISCS=%totalcds%" -T "TOTALTRACKS=%numtracks%" %hascover%--picture="%coverfile%"%hascover% %source% -o %dest%
TOC of the extracted CD
Track | Start | Length | Start sector | End sector
---------------------------------------------------------
1 | 0:00.00 | 4:16.05 | 0 | 19204
2 | 4:16.05 | 1:46.52 | 19205 | 27206
3 | 6:02.57 | 4:43.63 | 27207 | 48494
4 | 10:46.45 | 4:38.30 | 48495 | 69374
5 | 15:25.00 | 3:35.20 | 69375 | 85519
6 | 19:00.20 | 5:05.37 | 85520 | 108431
7 | 24:05.57 | 5:13.58 | 108432 | 131964
8 | 29:19.40 | 3:28.72 | 131965 | 147636
9 | 32:48.37 | 3:33.33 | 147637 | 163644
10 | 36:21.70 | 3:51.05 | 163645 | 180974
11 | 40:13.00 | 4:59.30 | 180975 | 203429
12 | 45:12.30 | 2:06.10 | 203430 | 212889
13 | 47:18.40 | 3:43.60 | 212890 | 229674
14 | 51:02.25 | 3:35.10 | 229675 | 245809
15 | 54:37.35 | 3:19.22 | 245810 | 260756
16 | 57:56.57 | 6:41.68 | 260757 | 290899
17 | 64:38.50 | 3:55.40 | 290900 | 308564
18 | 68:34.15 | 1:42.60 | 308565 | 316274
Track 1
Filename G:\BLOGGER\AA CD RIPPATI\Massenet Werther Nagano 1995\CD1\01 Prélude.wav
Peak level 97.9 %
Extraction speed 2.4 X
Track quality 100.0 %
Copy CRC C485778E
Accurately ripped (confidence 3) [C72492F3] (AR v2)
Copy OK
Track 2
Filename G:\BLOGGER\AA CD RIPPATI\Massenet Werther Nagano 1995\CD1\02 Act One - Assez! Assez!.wav
Peak level 80.0 %
Extraction speed 2.5 X
Track quality 100.0 %
Copy CRC 349D4331
Accurately ripped (confidence 3) [1712755C] (AR v2)
Copy OK
Track 3
Filename G:\BLOGGER\AA CD RIPPATI\Massenet Werther Nagano 1995\CD1\03 Bravo pour les enfants!.wav
Peak level 97.9 %
Extraction speed 3.0 X
Track quality 99.9 %
Copy CRC 3FD19D92
Accurately ripped (confidence 3) [BCED2690] (AR v2)
Copy OK
Track 4
Filename G:\BLOGGER\AA CD RIPPATI\Massenet Werther Nagano 1995\CD1\04 Alors, c'est bien ici la maison du Bailli¿.wav
Peak level 65.1 %
Extraction speed 3.4 X
Track quality 100.0 %
Copy CRC 37B32E3E
Accurately ripped (confidence 3) [90F07265] (AR v2)
Copy OK
Track 5
Filename G:\BLOGGER\AA CD RIPPATI\Massenet Werther Nagano 1995\CD1\05 Jésus vient de naître!.wav
Peak level 44.4 %
Extraction speed 3.5 X
Track quality 100.0 %
Copy CRC 4FF77D4A
Accurately ripped (confidence 3) [771A9C2F] (AR v2)
Copy OK
Track 6
Filename G:\BLOGGER\AA CD RIPPATI\Massenet Werther Nagano 1995\CD1\06 Arrivez-donc, Brühlmann!.wav
Peak level 65.5 %
Extraction speed 4.1 X
Track quality 100.0 %
Copy CRC 8F3ECFF5
Accurately ripped (confidence 3) [EA76100B] (AR v2)
Copy OK
Track 7
Filename G:\BLOGGER\AA CD RIPPATI\Massenet Werther Nagano 1995\CD1\07 Sophie!.wav
Peak level 57.7 %
Extraction speed 4.4 X
Track quality 100.0 %
Copy CRC F268075B
Accurately ripped (confidence 3) [C637B69D] (AR v2)
Copy OK
Track 8
Filename G:\BLOGGER\AA CD RIPPATI\Massenet Werther Nagano 1995\CD1\08 Il faut nous séparer.wav
Peak level 71.8 %
Extraction speed 4.1 X
Track quality 100.0 %
Copy CRC F0B49092
Accurately ripped (confidence 3) [EC6D7E6E] (AR v2)
Copy OK
Track 9
Filename G:\BLOGGER\AA CD RIPPATI\Massenet Werther Nagano 1995\CD1\09 Mais vous ne savez rien de moi.wav
Peak level 57.2 %
Extraction speed 3.9 X
Track quality 99.9 %
Copy CRC B6DA7DAE
Accurately ripped (confidence 3) [89CE4041] (AR v2)
Copy OK
Track 10
Filename G:\BLOGGER\AA CD RIPPATI\Massenet Werther Nagano 1995\CD1\10 Rêve! Extase! Bonheur!.wav
Peak level 97.9 %
Extraction speed 4.1 X
Track quality 99.9 %
Copy CRC 5738B210
Accurately ripped (confidence 3) [04A3F766] (AR v2)
Copy OK
Track 11
Filename G:\BLOGGER\AA CD RIPPATI\Massenet Werther Nagano 1995\CD1\11 Act Two - Vivat Bacchus.wav
Peak level 48.0 %
Extraction speed 4.9 X
Track quality 100.0 %
Copy CRC 0C860861
Accurately ripped (confidence 3) [165F9F05] (AR v2)
Copy OK
Track 12
Filename G:\BLOGGER\AA CD RIPPATI\Massenet Werther Nagano 1995\CD1\12 Trois mois! Voici trois mois!.wav
Peak level 39.2 %
Extraction speed 3.7 X
Track quality 99.9 %
Copy CRC 042A2042
Accurately ripped (confidence 3) [3A22C90D] (AR v2)
Copy OK
Track 13
Filename G:\BLOGGER\AA CD RIPPATI\Massenet Werther Nagano 1995\CD1\13 Un autre est son époux!.wav
Peak level 88.3 %
Extraction speed 4.9 X
Track quality 100.0 %
Copy CRC 04759638
Accurately ripped (confidence 3) [4D1CD42F] (AR v2)
Copy OK
Track 14
Filename G:\BLOGGER\AA CD RIPPATI\Massenet Werther Nagano 1995\CD1\14 Au bonheur dont mon âme est pleine.wav
Peak level 40.0 %
Extraction speed 4.2 X
Track quality 99.9 %
Copy CRC 5E0C3AD9
Accurately ripped (confidence 3) [BB2DC1AC] (AR v2)
Copy OK
Track 15
Filename G:\BLOGGER\AA CD RIPPATI\Massenet Werther Nagano 1995\CD1\15 Frère, voyez!.wav
Peak level 40.1 %
Extraction speed 4.6 X
Track quality 100.0 %
Copy CRC 5CBDDC19
Accurately ripped (confidence 3) [F9B3BE0E] (AR v2)
Copy OK
Track 16
Filename G:\BLOGGER\AA CD RIPPATI\Massenet Werther Nagano 1995\CD1\16 Ai-je dit vrai¿.wav
Peak level 60.2 %
Extraction speed 5.3 X
Track quality 100.0 %
Copy CRC 07B4636E
Accurately ripped (confidence 3) [EFC7983D] (AR v2)
Copy OK
Track 17
Filename G:\BLOGGER\AA CD RIPPATI\Massenet Werther Nagano 1995\CD1\17 Oui ce qu'elle m'ordonne.wav
Peak level 72.5 %
Extraction speed 5.1 X
Track quality 100.0 %
Copy CRC 93B5CC2C
Accurately ripped (confidence 3) [CE734BD0] (AR v2)
Copy OK
Track 18
Filename G:\BLOGGER\AA CD RIPPATI\Massenet Werther Nagano 1995\CD1\18 Mais venez donc!.wav
Peak level 72.4 %
Extraction speed 4.5 X
Track quality 100.0 %
Copy CRC 903FDB64
Accurately ripped (confidence 3) [200034A2] (AR v2)
Copy OK
All tracks accurately ripped
No errors occurred
End of status report

Лог создания рипа CD 2

Exact Audio Copy V1.0 beta 3 from 29. August 2011
EAC extraction logfile from 12. November 2015, 14:25
Kent Nagano, Opéra National de Lyon / Werther - CD2
Used drive : hp DVDRW DU8A5SHL Adapter: 0 ID: 0
Read mode : Secure
Utilize accurate stream : Yes
Defeat audio cache : Yes
Make use of C2 pointers : No
Read offset correction : 6
Overread into Lead-In and Lead-Out : No
Fill up missing offset samples with silence : Yes
Delete leading and trailing silent blocks : No
Null samples used in CRC calculations : Yes
Used interface : Native Win32 interface for Win NT & 2000
Gap handling : Appended to previous track
Used output format : User Defined Encoder
Selected bitrate : 768 kBit/s
Quality : High
Add ID3 tag : No
Command line compressor : C:\Program Files (x86)\Exact Audio Copy\FLAC\FLAC.EXE
Additional command line options : -6 -V -T "ARTIST=%artist%" -T "TITLE=%title%" -T "ALBUM=%albumtitle%" -T "DATE=%year%" -T "TRACKNUMBER=%tracknr%" -T "GENRE=%genre%" -T "COMMENT=%comment%" -T "BAND=%albuminterpret%" -T "ALBUMARTIST=%albuminterpret%" -T "COMPOSER=%composer%" %haslyrics%--tag-from-file=LYRICS="%lyricsfile%"%haslyrics% -T "DISCNUMBER=%cdnumber%" -T "TOTALDISCS=%totalcds%" -T "TOTALTRACKS=%numtracks%" %hascover%--picture="%coverfile%"%hascover% %source% -o %dest%
TOC of the extracted CD
Track | Start | Length | Start sector | End sector
---------------------------------------------------------
1 | 0:00.00 | 4:58.25 | 0 | 22374
2 | 4:58.25 | 4:49.07 | 22375 | 44056
3 | 9:47.32 | 1:33.20 | 44057 | 51051
4 | 11:20.52 | 2:00.15 | 51052 | 60066
5 | 13:20.67 | 4:15.48 | 60067 | 79239
6 | 17:36.40 | 2:39.47 | 79240 | 91211
7 | 20:16.12 | 4:49.45 | 91212 | 112931
8 | 25:05.57 | 4:56.68 | 112932 | 135199
9 | 30:02.50 | 2:23.32 | 135200 | 145956
10 | 32:26.07 | 2:39.45 | 145957 | 157926
11 | 35:05.52 | 4:28.50 | 157927 | 178076
12 | 39:34.27 | 5:12.20 | 178077 | 201496
13 | 44:46.47 | 3:51.05 | 201497 | 218826
14 | 48:37.52 | 1:46.15 | 218827 | 226791
15 | 50:23.67 | 4:26.08 | 226792 | 246749
Track 1
Filename G:\BLOGGER\AA CD RIPPATI\Massenet Werther Nagano 1995\CD2\01 Act Three - Prélude - Werther! Werther!.wav
Peak level 85.4 %
Extraction speed 2.3 X
Track quality 100.0 %
Copy CRC 7D88E530
Accurately ripped (confidence 3) [67C807E3] (AR v2)
Copy OK
Track 2
Filename G:\BLOGGER\AA CD RIPPATI\Massenet Werther Nagano 1995\CD2\02 Je vois écris de ma petite chambre.wav
Peak level 83.7 %
Extraction speed 3.0 X
Track quality 100.0 %
Copy CRC 0117B66B
Accurately ripped (confidence 3) [63F38665] (AR v2)
Copy OK
Track 3
Filename G:\BLOGGER\AA CD RIPPATI\Massenet Werther Nagano 1995\CD2\03 Bonjour, grande soeur!.wav
Peak level 57.9 %
Extraction speed 2.0 X
Track quality 99.8 %
Copy CRC 61FCE6AD
Accurately ripped (confidence 3) [567008D8] (AR v2)
Copy OK
Track 4
Filename G:\BLOGGER\AA CD RIPPATI\Massenet Werther Nagano 1995\CD2\04 Ah! le rire est béni.wav
Peak level 49.8 %
Extraction speed 2.8 X
Track quality 100.0 %
Copy CRC 370D87F8
Accurately ripped (confidence 3) [C415E746] (AR v2)
Copy OK
Track 5
Filename G:\BLOGGER\AA CD RIPPATI\Massenet Werther Nagano 1995\CD2\05 Va! Laisse couler mes larmes!.wav
Peak level 97.9 %
Extraction speed 3.0 X
Track quality 99.9 %
Copy CRC F9C47B28
Accurately ripped (confidence 3) [C89C6DCE] (AR v2)
Copy OK
Track 6
Filename G:\BLOGGER\AA CD RIPPATI\Massenet Werther Nagano 1995\CD2\06 Ah! mon courage m'abandonne.wav
Peak level 97.9 %
Extraction speed 3.4 X
Track quality 100.0 %
Copy CRC B72C823A
Accurately ripped (confidence 3) [A6D2B920] (AR v2)
Copy OK
Track 7
Filename G:\BLOGGER\AA CD RIPPATI\Massenet Werther Nagano 1995\CD2\07 Oui, c'est moi.wav
Peak level 43.7 %
Extraction speed 3.8 X
Track quality 100.0 %
Copy CRC 84175075
Accurately ripped (confidence 3) [36CBB3F3] (AR v2)
Copy OK
Track 8
Filename G:\BLOGGER\AA CD RIPPATI\Massenet Werther Nagano 1995\CD2\08 Pourqoi me réveiller.wav
Peak level 97.9 %
Extraction speed 4.1 X
Track quality 100.0 %
Copy CRC 6FCCCE7B
Accurately ripped (confidence 3) [1FBC7AC3] (AR v2)
Copy OK
Track 9
Filename G:\BLOGGER\AA CD RIPPATI\Massenet Werther Nagano 1995\CD2\09 Ah! Ah! Moi! Moi dans se bras!.wav
Peak level 86.7 %
Extraction speed 2.7 X
Track quality 99.9 %
Copy CRC 94974A03
Accurately ripped (confidence 3) [156F4852] (AR v2)
Copy OK
Track 10
Filename G:\BLOGGER\AA CD RIPPATI\Massenet Werther Nagano 1995\CD2\10 Werther est de retour.wav
Peak level 66.7 %
Extraction speed 4.0 X
Track quality 100.0 %
Copy CRC 3F2FAAF0
Accurately ripped (confidence 3) [59E9FA57] (AR v2)
Copy OK
Track 11
Filename G:\BLOGGER\AA CD RIPPATI\Massenet Werther Nagano 1995\CD2\11 Act Four - Scene 1 - Symphonie.wav
Peak level 97.9 %
Extraction speed 4.5 X
Track quality 100.0 %
Copy CRC F742513F
Accurately ripped (confidence 3) [70250618] (AR v2)
Copy OK
Track 12
Filename G:\BLOGGER\AA CD RIPPATI\Massenet Werther Nagano 1995\CD2\12 Scene 2 - Werther!...Werther!...Rien!...wav
Peak level 89.8 %
Extraction speed 4.7 X
Track quality 100.0 %
Copy CRC 7ACFFE52
Accurately ripped (confidence 3) [2A3BBF59] (AR v2)
Copy OK
Track 13
Filename G:\BLOGGER\AA CD RIPPATI\Massenet Werther Nagano 1995\CD2\13 Et moi, Werther, et moi, je t'aime.wav
Peak level 73.0 %
Extraction speed 4.2 X
Track quality 99.9 %
Copy CRC 4AA9BE2E
Accurately ripped (confidence 3) [7B249FAB] (AR v2)
Copy OK
Track 14
Filename G:\BLOGGER\AA CD RIPPATI\Massenet Werther Nagano 1995\CD2\14 Noël! Noël! Noël!.wav
Peak level 97.9 %
Extraction speed 4.2 X
Track quality 100.0 %
Copy CRC C8AA82AB
Accurately ripped (confidence 3) [6F10F16B] (AR v2)
Copy OK
Track 15
Filename G:\BLOGGER\AA CD RIPPATI\Massenet Werther Nagano 1995\CD2\15 Ah! ses yeux se ferment...wav
Peak level 97.9 %
Extraction speed 5.0 X
Track quality 100.0 %
Copy CRC E724725D
Accurately ripped (confidence 3) [111113D3] (AR v2)
Copy OK
All tracks accurately ripped
No errors occurred
End of status report

Треклист

Disc 1:
1. Prelude
Act I:
2. "Assez! Assez! M'écoutera-t-on cette fois?"
3. "Bravo pour les enfants!"
4. "Alors, c'est bien ici la maison du bailli?"
5. "Jésus vient de naître!"
6. "Arrivez donc, Brühlmann!"
7. "Sophie!... Albert!"
8. "Il faut nous séparer"
9. "Mais vous ne savez rien de moi!"
10. "Rêve! Extase! Bonheur!"
Act II:
11. Prelude
12. "Vivat Bacchus! Semper vivat!"
13. "Trois mois! Voici trois mois que nous sommes unis!"
14. "Un autre est son époux!"
15. "Au bonheur dont mon âme est pleine"
16. "Frère, voyez le beau bouquet!"
17. "Ai-je dit vrai?"
18. "Oui, ce qu'elle m'ordonne"
19. "Mais venez donc! Le cortège s'approche"
Disc 2:
Act III:
1. Prelude
2. "Je vous écris de ma petite chambre"
3. "Bonjour, grande soeur!"
4. "Ah! Le rire est béni!"
5. "Va! Laisse couler mes larmes"
6. "Ah! Mon courage m'abandonne!"
7. "Oui, c'est moi! Je reviens"
8. "Toute mon âme est là!"
9. "Ah! Moi! Moi! Dans ses bras!"
10. "Werther est et retour"
Act IV:
11. Symphony
12. "Werther!... Rien!"
13. "Et moi, Werther, et moi je t'aime!"
14. "Noël! Noël! Noël!"
15. "Ah! Ses yeux se ferment"



Показать сообщения:    

Текущее время: 07-Дек 15:35

Часовой пояс: UTC + 3


Вы не можете начинать темы
Вы не можете отвечать на сообщения
Вы не можете редактировать свои сообщения
Вы не можете удалять свои сообщения
Вы не можете голосовать в опросах
Вы не можете прикреплять файлы к сообщениям
Вы не можете скачивать файлы