Прерванный шаг аиста / To meteoro vima tou pelargou (Тео Ангелопулос / Theo Angelopoulos) [1991, Греция, Франция, драма, DVDRip] MVO + Sub Rus + Original


Статистика раздачи [Обновить пиров]
Размер:  2.61 GB   |    Зарегистрирован:  9 месяцев 30 дней   |    Скачан:  0 раз

Полного источника не было: Никогда

 
   
 
 
 

[Цитировать]

Прерванный шаг аиста / To meteoro vima tou pelargou
Страна: Греция, Франция
Жанр: драма
Год выпуска: 1991
Продолжительность: 02:17:03
Перевод: Профессиональный (многоголосый закадровый)
Cубтитры: русские
Оригинальная аудиодорожка: английский

Режиссер: Тео Ангелопулос / Theo Angelopoulos
В ролях: Жанна Моро, Марчелло Мастроянни, Грегори Карр, Дора Чрузику, Иниа Логотетис, Вассилис Буюкакис, Димитрис Пуликакос, Герасимос Скиадаресис, Тасос Апостолу, Акис Сакеллариу
Описание: Телерепортер находит в лагере беженцев пропавшего греческого политика. Вернувшись в Афины, журналист просит его жену поехать с ним в этот лагерь, чтобы отпали все сомнения…
Качество видео: DVDRip
Формат видео: AVI
Видео: 672x416 (1.62:1), 25 fps, XviD build 73 ~1823 kbps avg, 0.26 bit/pixel
Аудио: 48 kHz, AC3 Dolby Digital, 3/2 (L,C,R,l,r) + LFE ch, ~448 kbps - многоголосый
Аудио: 48 kHz, AC3 Dolby Digital, 3/2 (L,C,R,l,r) + LFE ch, ~448 kbps - оригинал (отдельным файлом)

MediaInfo

Общее
Полное имя : H:\To.meteoro.vima.tou.pelargou.1991.dvdrip _[2.18]_[teko]\To.meteoro.vima.tou.pelargou.1991.dvdrip _[2.18].avi
Формат : AVI
Формат/Информация : Audio Video Interleave
Профиль формата : OpenDML
Размер файла : 2,18 Гбайт
Продолжительность : 2 ч. 17 м.
Общий поток : 2278 Кбит/сек
Программа кодирования : VirtualDubMod 1.5.10.3 | www.virtualdub-fr.org || (build 2550/release)
Библиотека кодирования : VirtualDubMod build 2550/release
Видео
Идентификатор : 0
Формат : MPEG-4 Visual
Профиль формата : Advanced Simple@L5
Параметр BVOP формата : 1
Параметр QPel формата : Нет
Параметр GMC формата : Без точки перехода
Параметр матрицы формата : Выборочная
Идентификатор кодека : XVID
Идентификатор кодека/Подсказка : XviD
Продолжительность : 2 ч. 17 м.
Битрейт : 1818 Кбит/сек
Ширина : 672 пикселя
Высота : 416 пикселей
Соотношение сторон : 16:10
Частота кадров : 25,000 кадров/сек
Цветовое пространство : YUV
Субдискретизация насыщенности : 4:2:0
Битовая глубина : 8 бит
Тип развёртки : Прогрессивная
Метод сжатия : С потерями
Бит/(Пиксели*Кадры) : 0.260
Размер потока : 1,74 Гбайт (80%)
Библиотека кодирования : XviD 73
Аудио
Идентификатор : 1
Формат : AC-3
Формат/Информация : Audio Coding 3
Расширение режима : CM (complete main)
Параметр Endianness формата : Big
Идентификатор кодека : 2000
Продолжительность : 2 ч. 17 м.
Вид битрейта : Постоянный
Битрейт : 448 Кбит/сек
Каналы : 6 каналов
Расположение каналов : Front: L C R, Side: L R, LFE
Частота : 48,0 КГц
Битовая глубина : 16 бит
Метод сжатия : С потерями
Размер потока : 439 Мбайт (20%)
Выравнивание : Разделение по промежуткам
Продолжительность промежутка : 40 мс. (1,00 видеокадр)
Время предзагрузки промежутка : 500 мс.

Скриншоты

[teatrix.ru].t22625.torrent 
Торрент: Зарегистрирован [ 2016-03-21 00:41 ] · DF2E3D873542B153E57EFDBB2660491A08133C7C

Скачать .torrent

Скачать

14 KB

Статус: проверено
Скачан: 0 раз
Размер: 2.61 GB
terms.php



Быстрый ответ

Имя:

      
Для отправки сообщений необходимо включить JavaScript
Показать сообщения:    

Текущее время: 20-Янв 14:58

Часовой пояс: UTC + 3


Вы можете начинать темы
Вы можете отвечать на сообщения
Вы не можете редактировать свои сообщения
Вы не можете удалять свои сообщения
Вы не можете голосовать в опросах
Вы не можете прикреплять файлы к сообщениям
Вы можете скачивать файлы