Александр Великий / Μεγαλέξανδρος / Alexander the Great (Тео Ангелопулос / Theo Angelopoulos) [1980, Греция, Италия, драма, притча, DVDRip] Sub Rus + original


Статистика раздачи [Обновить пиров]
Размер:  2.18 GB   |    Зарегистрирован:  8 месяцев 18 дней   |    Скачан:  1 раз

Полного источника не было: 3 месяца 27 дней

 
   
 
 
 

[Цитировать]

Александр Великий / Μεγαλέξανδρος / Alexander the Great
Страна: Греция, Италия
Жанр: драма, притча
Год выпуска: 1980
Продолжительность: 03:19:35
Перевод: Субтитры - ГД
Cубтитры: русские
Оригинальная аудиодорожка: греческий

Режиссер: Тео Ангелопулос / Theo Angelopoulos
В ролях: Омеро Антонутти, Ева Котаманиду, Майкл Яннатос, Григорис Эвангелатос, Миранда Коунелаки, Лаура Де Марки, Тула Статопулу, Танос Грамменос, Элпидофорос Голсис, Харис Писимисис
Описание: Это монументальная притча о собственности и власти. Ее главный персонаж - Александр Великий, явившийся в 20 век из далекого прошлого со своей тяжёлой ношей, "мраморной головой в руках", чтобы снова пройти путь от бунта против тирании к тирании, от освобождения к завоеванию.
"Александр Великий" - фильм большого уровня обощения, в нем мало крупных планов - и зрительных, и драматургических. Поэтому здесь уместнее говорить о действующих силах - общественных и политических - чем об отдельных действующих лицах, которые, в основном, являются представителями данных сил. Это греческое правительство, поддерживающее собственников и угнетающее крестьян, но само оказавшееся под гнетом более могущественной державы - Англии. Это английское правительство, требующее долгосрочной аренды греческих угольных рудников как компенсацию за все вложенные инвестиции. Это Александр Великий со своим отрядом, похищающий молодых английских аристократов, намереваясь поначалу провести бескровную революцию и одними ультиматумами добиться, чтобы крестьянам была возвращена земля, отнятая у них правительством. Это жители селения, устроившие в нем коммуну, живущие по принципу "всё для всех" и даже не заводящие часы, так как "ничто их не ограничивает" - но лишь до тех пор, пока не приходит искушение собственностью. Это итальянские анархисты, попадающие в селение и восхищающиеся его укладом, напоминающим им сон наяву.
Фильм развертывается очень медленно и состоит из очень длинных красивых планов. Вместе с гипнотизирующей музыкой, обобщенностью и условностью жестов, особой организацией движения в кадре, это оставляет впечатление некого большого кинематографического ритуала.

Качество видео: DVDRip
Формат видео: AVI
Видео: 640x480 (1.33:1), 25 fps, XviD build 73 ~1335 kbps avg, 0.17 bit/pixel
Аудио: 48 kHz, AC3 Dolby Digital, 2/0 (L,R) ch, ~224 kbps

Фрагмент субтитров

162
00:59:24,728 --> 00:59:28,038
Командир и все остальные,
добро пожаловать!
163
01:00:29,528 --> 01:00:31,166
Добро пожаловать, отец.
164
01:02:29,088 --> 01:02:30,965
Я вернулся, жена.
165
01:02:51,008 --> 01:02:54,398
Пьеро Кори рассказал мне
о вашей общине.
166
01:02:54,488 --> 01:02:56,444
Я встречал его в Париже.
167
01:03:07,768 --> 01:03:11,204
Потом видел его снова в 9Зм,
на пролетарском конгрессе в Женове.
168
01:03:14,408 --> 01:03:15,887
У нас разные взгляды.
169
01:03:16,008 --> 01:03:17,407
Да, мы знаем.
170
01:03:58,368 --> 01:04:00,245
Отвратительная маска
сброшена,
171
01:04:00,328 --> 01:04:06,085
остался человек без скипетра, свободный,
без ограничений, равный со всеми,
172
01:04:06,168 --> 01:04:11,526
без классов, без кланов и наций, без страха,
без культа, чинов; сам себе властелин!
173
01:04:15,568 --> 01:04:16,887
Похоже на сон...
174
01:06:02,568 --> 01:06:03,637
Кто вы?
175
01:06:07,208 --> 01:06:10,598
Итальянские анархисты,
полиция охотится за нами.
176
01:06:12,288 --> 01:06:13,562
Чего вы хотите?

MediaInfo

Общее
Полное имя : H:\Alexander.the.Great.1980.dvdrip _[2.18]_[teko]\Alexander.the.Great.1980.dvdrip _[2.18].avi
Формат : AVI
Формат/Информация : Audio Video Interleave
Профиль формата : OpenDML
Размер файла : 2,18 Гбайт
Продолжительность : 3 ч. 19 м.
Общий поток : 1567 Кбит/сек
Программа кодирования : VirtualDubMod 1.5.10.3 | www.virtualdub-fr.org || (build 2550/release)
Библиотека кодирования : VirtualDubMod build 2550/release
Видео
Идентификатор : 0
Формат : MPEG-4 Visual
Профиль формата : Advanced Simple@L5
Параметр BVOP формата : 1
Параметр QPel формата : Нет
Параметр GMC формата : Без точки перехода
Параметр матрицы формата : Выборочная
Идентификатор кодека : XVID
Идентификатор кодека/Подсказка : XviD
Продолжительность : 3 ч. 19 м.
Битрейт : 1330 Кбит/сек
Ширина : 640 пикселей
Высота : 480 пикселей
Соотношение сторон : 4:3
Частота кадров : 25,000 кадров/сек
Цветовое пространство : YUV
Субдискретизация насыщенности : 4:2:0
Битовая глубина : 8 бит
Тип развёртки : Прогрессивная
Метод сжатия : С потерями
Бит/(Пиксели*Кадры) : 0.173
Размер потока : 1,85 Гбайт (85%)
Библиотека кодирования : XviD 73
Аудио
Идентификатор : 1
Формат : AC-3
Формат/Информация : Audio Coding 3
Расширение режима : CM (complete main)
Параметр Endianness формата : Big
Идентификатор кодека : 2000
Продолжительность : 3 ч. 19 м.
Вид битрейта : Постоянный
Битрейт : 224 Кбит/сек
Каналы : 2 канала
Расположение каналов : Front: L R
Частота : 48,0 КГц
Битовая глубина : 16 бит
Метод сжатия : С потерями
Размер потока : 320 Мбайт (14%)
Выравнивание : Разделение по промежуткам
Продолжительность промежутка : 40 мс. (1,00 видеокадр)
Время предзагрузки промежутка : 500 мс.
[teatrix.ru].t22626.torrent 
Торрент: Зарегистрирован [ 2016-03-21 00:41 ] · 67CA0783C0134552F18ABF266DCDA71AF6DB9A3E

Скачать .torrent

Скачать

12 KB

Статус: проверено
Скачан: 1 раз
Размер: 2.18 GB
terms.php



Быстрый ответ

Имя:

      
Для отправки сообщений необходимо включить JavaScript
Показать сообщения:    

Текущее время: 08-Дек 19:04

Часовой пояс: UTC + 3


Вы можете начинать темы
Вы можете отвечать на сообщения
Вы не можете редактировать свои сообщения
Вы не можете удалять свои сообщения
Вы не можете голосовать в опросах
Вы не можете прикреплять файлы к сообщениям
Вы можете скачивать файлы