[TR24][OF] Bloch - From Jewish Life, Baal Shem, Meditation Hebraique, Schelomo; Shostakovich / Шостакович - Из еврейской народной поэзии / From Jewish Folk Poetry; Casals - Song Of The Birds (Sol Gabetta) [Sony] - 2014 (Orchestral, Cello)


Статистика раздачи [Обновить пиров]
Размер:  557 MB   |    Зарегистрирован:  8 месяцев 17 дней   |    Скачан:  0 раз

Полного источника не было: Никогда

 
   
 
 
 

[Цитировать]

Sol Gabetta — Prayer-Sony Classical • 24/44,1 • 2.0 • 2014 • lossless • FLAC • tracks • 01:00:10 • web-releasewebsite-Sol Gabetta (cello) • Mikhail Bronner (conductor) • Amsterdam Sinfonietta
Cello Ensemble of the Amsterdam Sinfonietta • Orchestre National de Lyon • Leonard Slatkin Rock/Pop-Band
-
01-03. Ernest Bloch: From Jewish Life
04. Ernest Bloch: Baal Shem - II. Nigun
05. Ernest Bloch: Méditation Hébraïque
06-09. Dmitri Shostakovich: From Jewish Folk Poetry, Op. 79
10. Ernest Bloch: Schelomo
11. Casals: Song of the Birds
-

Dynamic Range Meter

foobar2000 1.2.6 / Dynamic Range Meter 1.1.1
log date: 2015-11-22 23:47:07
--------------------------------------------------------------------------------
Analyzed: Sol Gabetta / Prayer
--------------------------------------------------------------------------------
DR Peak RMS Duration Track
--------------------------------------------------------------------------------
DR12 -0.31 dB -19.30 dB 4:38 01/11-From Jewish Life: - I. Prayer
DR12 -0.71 dB -19.95 dB 2:52 02/11-From Jewish Life: - II. Supplication
DR12 -3.98 dB -21.96 dB 2:48 03/11-From Jewish Life: - III. Jewish Song
DR14 -0.20 dB -19.45 dB 7:30 04/11-Baal Shem - II. Nigun
DR13 -0.21 dB -18.87 dB 6:49 05/11-Méditation Hébraïque
DR14 -4.01 dB -22.77 dB 3:28 06/11-From Jewish Folk Poetry, Op. 79 - III. Lullaby (Arr. for Cello and String Orchestra)
DR14 -3.33 dB -23.54 dB 1:02 07/11-From Jewish Folk Poetry, Op. 79 - V. A Warning (Arr. for Cello and String Orchestra)
DR12 -0.20 dB -16.15 dB 1:37 08/11-From Jewish Folk Poetry, Op. 79 - VII. The Song of Misery (Arr. for Cello and String Orchestra)
DR14 -0.20 dB -21.27 dB 2:53 09/11-From Jewish Folk Poetry, Op. 79 - X. The Young Girl's Song (Arr. for Cello and String Orchestra)
DR16 -0.32 dB -21.92 dB 22:36 10/11-Schelomo
DR13 -5.83 dB -25.79 dB 3:56 11/11-Song of the Birds
--------------------------------------------------------------------------------
Number of tracks: 11
Official DR value: DR13
Samplerate: 44100 Hz
Channels: 2
Bits per sample: 24
Bitrate: 1195 kbps
Codec: FLAC
================================================================================

Скриншот спектра частот

Track 1
[teatrix.ru].t22628.torrent 
Торрент: Зарегистрирован [ 2016-03-21 00:43 ] · 01BF4495E732731AC64643C0CDAC4F3055D6D567

Скачать .torrent

Скачать

12 KB

Статус: проверено
Скачан: 0 раз
Размер: 557 MB
terms.php



Быстрый ответ

Имя:

      
Для отправки сообщений необходимо включить JavaScript
Показать сообщения:    

Текущее время: 07-Дек 21:24

Часовой пояс: UTC + 3


Вы можете начинать темы
Вы можете отвечать на сообщения
Вы не можете редактировать свои сообщения
Вы не можете удалять свои сообщения
Вы не можете голосовать в опросах
Вы не можете прикреплять файлы к сообщениям
Вы можете скачивать файлы