(Classical) Winds & Piano: Poulenc, Farrenc, Roussel, Caplet, Mozart, Beethoven, Thuille, Римский-Корсаков - Les Vents Francais - 3CD - 2014, FLAC (image+.cue) lossless


 

[Цитировать]

Winds & Piano: Poulenc, Farrenc, Roussel, Caplet, Mozart, Beethoven, Thuille, Римский-Корсаков - Les Vents Français
Жанр: Classical
Год издания диска: 2014
Издатель (лейбл): Warner Classics
Дата записи: 2014
Аудиокодек: FLAC
Тип рипа: image+.cue
Битрейт аудио: lossless
Продолжительность: 2:59:27
Источник: собственный рип
Наличие сканов в содержимом раздачи: да
Треклист:

CD1

Francis Poulenc (1899-1963)
[1]-[3] Sextet FP100 (1932)
Louise Farrenc (1804-1875)
[4]-[6] Sextet in C minor, Op.40 (1852)
Albert Roussel (1869-1937)
[7] Divertissement, Op.6 for piano and wind quintet (1906)
André Caplet (1878-1925)
[8]-[11] Quintet for flute, oboe, clarinet, bassoon and piano (1899)

CD2

Wolfgang Amadeus Mozart (1756-1791)
[1]-[3] Quintet in E flat major K452 for oboe, clarinet, bassoon, horn and piano (1784)
Ludwig van Beethoven (1770-1827)
[4]-[6] Quintet in E flat major Op.16 for oboe, clarinet, bassoon, horn and piano (1796)

CD3

Ludwig Thuille (1861-1907)
[1]-[4] Sextet in B flat major Op.6 for piano and wind quintet (1888)
Николай Андреевич Римский-Корсаков (1844-1908)
[5]-[7] Квинтет си бемоль мажор для флейты, кларнета, фагота, валторны и фортепиано (1876)
Исполнители:
Les Vents Français
Emmanuel Pahud flute
Paul Meyer clarinet
François Leleux oboe
Gilbert Audin bassoon
Radovan Vlatković French horn
with Éric Le Sage piano

Лог создания рипа: CD1

Exact Audio Copy V1.1 from 23. June 2015
EAC extraction logfile from 11. October 2015, 17:14
Les Vent Francais / Winds & Piano - CD1
Used drive : HL-DT-STDVDRAM GU70N Adapter: 1 ID: 0
Read mode : Secure
Utilize accurate stream : Yes
Defeat audio cache : Yes
Make use of C2 pointers : No
Read offset correction : 48
Overread into Lead-In and Lead-Out : No
Fill up missing offset samples with silence : Yes
Delete leading and trailing silent blocks : No
Null samples used in CRC calculations : Yes
Used interface : Native Win32 interface for Win NT & 2000
Used output format : User Defined Encoder
Selected bitrate : 128 kBit/s
Quality : High
Add ID3 tag : No
Command line compressor : C:\Program Files (x86)\Exact Audio Copy\Flac\flac.exe
Additional command line options : -V -8 -T "Date=%year%" -T "Genre=%genre%" %source%
TOC of the extracted CD
Track | Start | Length | Start sector | End sector
---------------------------------------------------------
1 | 0:00.00 | 7:22.00 | 0 | 33149
2 | 7:22.00 | 4:12.00 | 33150 | 52049
3 | 11:34.00 | 5:26.63 | 52050 | 76562
4 | 17:00.63 | 11:32.12 | 76563 | 128474
5 | 28:33.00 | 5:33.00 | 128475 | 153449
6 | 34:06.00 | 6:31.63 | 153450 | 182837
7 | 40:37.63 | 6:39.00 | 182838 | 212762
8 | 47:16.63 | 8:00.60 | 212763 | 248822
9 | 55:17.48 | 6:19.28 | 248823 | 277275
10 | 61:37.01 | 4:00.74 | 277276 | 295349
11 | 65:38.00 | 7:24.00 | 295350 | 328649
Range status and errors
Selected range
Filename C:\temp\Les Vents Francais - Winds & Piano\CD1\Winds & Piano - CD1.wav
Peak level 98.8 %
Extraction speed 2.2 X
Range quality 100.0 %
Test CRC 5BF78AD9
Copy CRC 5BF78AD9
Copy OK
No errors occurred
AccurateRip summary
Track 1 accurately ripped (confidence 3) [B56D196D] (AR v2)
Track 2 accurately ripped (confidence 3) [99A81D18] (AR v2)
Track 3 accurately ripped (confidence 3) [BB1C2BDD] (AR v2)
Track 4 accurately ripped (confidence 3) [97B24E45] (AR v2)
Track 5 accurately ripped (confidence 3) [A0FFAFF5] (AR v2)
Track 6 accurately ripped (confidence 3) [A100A736] (AR v2)
Track 7 accurately ripped (confidence 3) [913B7CD5] (AR v2)
Track 8 accurately ripped (confidence 3) [512DBB45] (AR v2)
Track 9 accurately ripped (confidence 3) [5B4A0835] (AR v2)
Track 10 accurately ripped (confidence 3) [61181CEA] (AR v2)
Track 11 accurately ripped (confidence 3) [1B5E1B9C] (AR v2)
All tracks accurately ripped
End of status report
==== Log checksum 7C8558E974CA7B849CF2A6486584DF6542944A938FD5B39A5CD7E06FFD05F909 ====

Лог создания рипа: CD2

Exact Audio Copy V1.1 from 23. June 2015
EAC extraction logfile from 11. October 2015, 18:04
Les Vents Français / Winds & Piano - CD2
Used drive : HL-DT-STDVDRAM GU70N Adapter: 1 ID: 0
Read mode : Secure
Utilize accurate stream : Yes
Defeat audio cache : Yes
Make use of C2 pointers : No
Read offset correction : 48
Overread into Lead-In and Lead-Out : No
Fill up missing offset samples with silence : Yes
Delete leading and trailing silent blocks : No
Null samples used in CRC calculations : Yes
Used interface : Native Win32 interface for Win NT & 2000
Used output format : User Defined Encoder
Selected bitrate : 128 kBit/s
Quality : High
Add ID3 tag : No
Command line compressor : C:\Program Files (x86)\Exact Audio Copy\Flac\flac.exe
Additional command line options : -V -8 -T "Date=%year%" -T "Genre=%genre%" %source%
TOC of the extracted CD
Track | Start | Length | Start sector | End sector
---------------------------------------------------------
1 | 0:00.00 | 10:20.00 | 0 | 46499
2 | 10:20.00 | 8:29.00 | 46500 | 84674
3 | 18:49.00 | 5:49.67 | 84675 | 110916
4 | 24:38.67 | 13:45.12 | 110917 | 172803
5 | 38:24.04 | 7:25.00 | 172804 | 206178
6 | 45:49.04 | 5:36.71 | 206179 | 231449
Range status and errors
Selected range
Filename C:\temp\Les Vents Francais - Winds & Piano\CD2\Winds & Piano - CD2.wav
Peak level 98.8 %
Extraction speed 5.0 X
Range quality 100.0 %
Test CRC 2DEF4E25
Copy CRC 2DEF4E25
Copy OK
No errors occurred
AccurateRip summary
Track 1 accurately ripped (confidence 3) [601B3C49] (AR v2)
Track 2 accurately ripped (confidence 3) [66A40CD5] (AR v2)
Track 3 accurately ripped (confidence 3) [54DE2EAF] (AR v2)
Track 4 accurately ripped (confidence 3) [3897AC9A] (AR v2)
Track 5 accurately ripped (confidence 3) [E91293F0] (AR v2)
Track 6 accurately ripped (confidence 3) [F3065983] (AR v2)
All tracks accurately ripped
End of status report
==== Log checksum A17A67CCAC82D66390C0D9B04B3A0ACA4B42A283560E490B9192ADF11622EC3A ====

Лог создания рипа: CD3

Exact Audio Copy V1.1 from 23. June 2015
EAC extraction logfile from 11. October 2015, 19:12
Les Vents Français, Eric Le Sage / Winds & Piano - CD3
Used drive : HL-DT-STDVDRAM GU70N Adapter: 1 ID: 0
Read mode : Secure
Utilize accurate stream : Yes
Defeat audio cache : Yes
Make use of C2 pointers : No
Read offset correction : 48
Overread into Lead-In and Lead-Out : No
Fill up missing offset samples with silence : Yes
Delete leading and trailing silent blocks : No
Null samples used in CRC calculations : Yes
Used interface : Native Win32 interface for Win NT & 2000
Used output format : User Defined Encoder
Selected bitrate : 128 kBit/s
Quality : High
Add ID3 tag : No
Command line compressor : C:\Program Files (x86)\Exact Audio Copy\Flac\flac.exe
Additional command line options : -V -8 -T "Date=%year%" -T "Genre=%genre%" %source%
TOC of the extracted CD
Track | Start | Length | Start sector | End sector
---------------------------------------------------------
1 | 0:00.00 | 10:21.00 | 0 | 46574
2 | 10:21.00 | 6:59.00 | 46575 | 77999
3 | 17:20.00 | 3:25.00 | 78000 | 93374
4 | 20:45.00 | 5:48.01 | 93375 | 119475
5 | 26:33.01 | 10:37.72 | 119476 | 167322
6 | 37:10.73 | 9:44.02 | 167323 | 211124
7 | 46:55.00 | 8:04.00 | 211125 | 247424
Range status and errors
Selected range
Filename C:\temp\Les Vents Francais - Winds & Piano\CD3\Winds & Piano - CD3.wav
Peak level 98.8 %
Extraction speed 5.1 X
Range quality 100.0 %
Test CRC CB6D0D6F
Copy CRC CB6D0D6F
Copy OK
No errors occurred
AccurateRip summary
Track 1 accurately ripped (confidence 2) [9DF6CEC4] (AR v2)
Track 2 accurately ripped (confidence 2) [3318B003] (AR v2)
Track 3 accurately ripped (confidence 2) [79ECF3CB] (AR v2)
Track 4 accurately ripped (confidence 2) [5A21CCC0] (AR v2)
Track 5 accurately ripped (confidence 2) [C5378233] (AR v2)
Track 6 accurately ripped (confidence 2) [3AFAE480] (AR v2)
Track 7 accurately ripped (confidence 2) [7BA88FC8] (AR v2)
All tracks accurately ripped
End of status report
==== Log checksum C517B5F961EF6386502622412BBAE913280A21E8506C0B3D25CF77B8D162B241 ====



Показать сообщения:    

Текущее время: 10-Дек 02:15

Часовой пояс: UTC + 3


Вы не можете начинать темы
Вы не можете отвечать на сообщения
Вы не можете редактировать свои сообщения
Вы не можете удалять свои сообщения
Вы не можете голосовать в опросах
Вы не можете прикреплять файлы к сообщениям
Вы не можете скачивать файлы