Гении и злодеи. Гай Северин. Крутые виражи судьбы (Юлия Маврина) [2015, документальный, TVRip]


Статистика раздачи [Обновить пиров]
Размер:  343 MB   |    Зарегистрирован:  8 месяцев 12 дней   |    Скачан:  0 раз

Полного источника не было: Никогда

 
   
 
 
 

[Цитировать]

Гении и злодеи. Гай Северин. Крутые виражи судьбы
Дата/Год выпуска: 2015
Страна: Россия
Жанр: документальный
Продолжительность: 00:26:03
Перевод: Не требуется
Режиссер: Юлия Маврина
Описание: Человек-легенда, самый молодой из плеяды генеральных конструкторов. На его счету множество изобретений, призванных сохранить жизнь не только летчика или космонавта, но и любого, кто попадет в экстремальные условия: амортизационное кресло для экипажа вертолета при жесткой посадке; фармацевтическое средство, позволяющее выжить в ледяной воде; противошоковые костюмы "Каштан" для тяжелораненых. А уникальные скафандры и катапультные кресла, созданные Севериным, до сих пор считаются лучшими в мире.
Доп. информация: Автор сценария - Роман Чудинов
Сэмпл: http://sendfile.su/1176297
качество: TVRip
формат: AVI
Видео: XviD, 1700 Кбит/сек, 720 x 544 (1.324), 25.000 fps
Аудио: МР3, 128 Кбит/сек, 2 канала, 48,0 КГц

MediaInfo

Общее
Полное имя : T:\Мои раздачи\1\Гай Северин. Крутые виражи судьбы (2015)\Гай Северин. Крутые виражи судьбы (2015).avi
Формат : AVI
Формат/Информация : Audio Video Interleave
Размер файла : 343 Мбайт
Продолжительность : 26 м.
Общий поток : 1839 Кбит/сек
Программа кодирования : VirtualDubMod 1.5.10.2 (build 2540/release)
Библиотека кодирования : VirtualDubMod build 2540/release
Видео
Идентификатор : 0
Формат : MPEG-4 Visual
Профиль формата : Advanced Simple@L5
Параметр BVOP формата : 2
Параметр QPel формата : Нет
Параметр GMC формата : Без точки перехода
Параметр матрицы формата : Default (H.263)
Идентификатор кодека : XVID
Идентификатор кодека/Подсказка : XviD
Продолжительность : 26 м.
Битрейт : 1701 Кбит/сек
Ширина : 720 пикселей
Высота : 544 пикселя
Соотношение сторон : 4:3
Частота кадров : 25,000 кадров/сек
Цветовое пространство : YUV
Субдискретизация насыщенности : 4:2:0
Битовая глубина : 8 бит
Тип развёртки : Прогрессивная
Метод сжатия : С потерями
Бит/(Пиксели*Кадры) : 0.174
Размер потока : 317 Мбайт (93%)
Библиотека кодирования : XviD 1.2.1 (UTC 2008-12-04)
Аудио
Идентификатор : 1
Формат : MPEG Audio
Версия формата : Version 1
Профиль формата : Layer 3
Идентификатор кодека : 55
Идентификатор кодека/Подсказка : MP3
Продолжительность : 26 м.
Вид битрейта : Постоянный
Битрейт : 128 Кбит/сек
Каналы : 2 канала
Частота : 48,0 КГц
Метод сжатия : С потерями
Размер потока : 23,8 Мбайт (7%)
Выравнивание : Соединение по промежуткам
Продолжительность промежутка : 40 мс. (1,00 видеокадр)
Время предзагрузки промежутка : 504 мс.
Библиотека кодирования : LAME3.98r
Настройки программы : -m s -V 4 -q 2 -lowpass 17 -b 128

Скриншоты

[teatrix.ru].t22631.torrent 
Торрент: Зарегистрирован [ 2016-03-21 00:42 ] · 7116D4C5C8094A5C8ECC2ED542901B289EB419E1

Скачать .torrent

Скачать

14 KB

Статус: проверено
Скачан: 0 раз
Размер: 343 MB
terms.php



Быстрый ответ

Имя:

      
Для отправки сообщений необходимо включить JavaScript
Показать сообщения:    

Текущее время: 02-Дек 21:15

Часовой пояс: UTC + 3


Вы можете начинать темы
Вы можете отвечать на сообщения
Вы не можете редактировать свои сообщения
Вы не можете удалять свои сообщения
Вы не можете голосовать в опросах
Вы не можете прикреплять файлы к сообщениям
Вы можете скачивать файлы