(Classical/Chamber) Schubert: String Quintet; Schoenberg: Verklarte Nacht (Janine Jansen) - 2012, FLAC (tracks+.cue) lossless


 

[Цитировать]

Janine Jansen — Schubert: String Quintet. Schoenberg: Verklärte Nacht-Classical/Chamber • Decca • № 4783551 • 2012 • lossless • FLAC • tracks+.cue • 01:23:10 • avaxhome.ws • сканы-01-05. Arnold Schoenberg: Verklarte Nacht, Op.4, Version for String Sextet
06-09. Franz Schubert: String Quintet in C, D.956
-Janine Jansen - violin || Boris Brovtsyn - violin || Maxim Rysanov - viola | Amichai Grosz - viola || Torleif Thedeén - cello || Jens Peter Maintz - cello
Recorded: May, 2012-“С этим альбомом исполнилось моё заветное желание записать два самых прекрасных из когда-либо написанных камерных произведения.”Janine Jansen-

logsЛог создания рипа

X Lossless Decoder version 20131102 (145.0)
XLD extraction logfile from 2013-11-23 19:14:57 -0600
Janine Jansen (vn), Boris Brovtsyn (vn), Maxim Rysanov (vla) Amichai Grosz (Vla), Torleif Thedeén (clo), Jens Peter Maintz (clo) / Schubert- String Quintet; Schoenberg- Verklärte Nacht
Used drive : MATSHITA DVD-R UJ-8A8 (revision HB14)
Media type : Pressed CD
Ripper mode : XLD Secure Ripper
Disable audio cache : OK for the drive with a cache less than 1375KiB
Make use of C2 pointers : NO
Read offset correction : 102
Max retry count : 100
Gap status : Analyzed, Appended
TOC of the extracted CD
Track | Start | Length | Start sector | End sector
---------------------------------------------------------
1 | 00:00:00 | 06:41:28 | 0 | 30102
2 | 06:41:28 | 06:27:56 | 30103 | 59183
3 | 13:09:09 | 02:35:71 | 59184 | 70879
4 | 15:45:05 | 09:40:61 | 70880 | 114440
5 | 25:25:66 | 04:32:63 | 114441 | 134903
6 | 29:58:54 | 19:38:74 | 134904 | 223327
7 | 49:37:53 | 14:09:15 | 223328 | 287017
8 | 63:46:68 | 09:34:06 | 287018 | 330073
9 | 73:20:74 | 09:48:72 | 330074 | 374245
AccurateRip Summary (DiscID: 0018c872-00be5c52-80137d09)
Track 01 : OK (v1+v2, confidence 29/29)
Track 02 : OK (v1+v2, confidence 29/29)
Track 03 : OK (v1+v2, confidence 29/29)
Track 04 : OK (v1+v2, confidence 29/29)
Track 05 : OK (v1+v2, confidence 28/28)
Track 06 : OK (v1+v2, confidence 28/28)
Track 07 : OK (v1+v2, confidence 29/29)
Track 08 : OK (v1+v2, confidence 29/29)
Track 09 : OK (v1+v2, confidence 28/28)
->All tracks accurately ripped.
All Tracks
Album gain : -0.81 dB
Peak : 0.988861
Statistics
Read error : 0
Jitter error (maybe fixed) : 0
Retry sector count : 0
Damaged sector count : 0
Track 01
Filename : /Schubert String Quintet; Schoenberg Verklate Nacht/01 Schoenberg_ Verklärte Nacht, Op. 4 - 1. Sehr Langsam.flac
Pre-gap length : 00:02:00
Track gain : -0.88 dB
Peak : 0.801880
CRC32 hash (test run) : 0BF0E44B
CRC32 hash : 0BF0E44B
CRC32 hash (skip zero) : 144198A5
AccurateRip v1 signature : B20F9B6D
AccurateRip v2 signature : 0B07BD52
->Accurately ripped (v1+v2, confidence 5+24/29)
Statistics
Read error : 0
Jitter error (maybe fixed) : 0
Retry sector count : 0
Damaged sector count : 0
Track 02
Filename : /Schubert String Quintet; Schoenberg Verklate Nacht/02 Schoenberg_ Verklärte Nacht, Op. 4 - 2. Etwas Bewegter.flac
Track gain : -1.99 dB
Peak : 0.986511
CRC32 hash (test run) : 9B3E8593
CRC32 hash : 9B3E8593
CRC32 hash (skip zero) : DFA70F12
AccurateRip v1 signature : 148AC8DE
AccurateRip v2 signature : C6FC2E8B
->Accurately ripped (v1+v2, confidence 5+24/29)
Statistics
Read error : 0
Jitter error (maybe fixed) : 0
Retry sector count : 0
Damaged sector count : 0
Track 03
Filename : /Schubert String Quintet; Schoenberg Verklate Nacht/03 Schoenberg_ Verklärte Nacht, Op. 4 - 3. Schwer Betont.flac
Track gain : -1.34 dB
Peak : 0.877625
CRC32 hash (test run) : 74CFBD26
CRC32 hash : 74CFBD26
CRC32 hash (skip zero) : 39382DCC
AccurateRip v1 signature : 42BD2E8E
AccurateRip v2 signature : AE8B710E
->Accurately ripped (v1+v2, confidence 5+24/29)
Statistics
Read error : 0
Jitter error (maybe fixed) : 0
Retry sector count : 0
Damaged sector count : 0
Track 04
Filename : /Schubert String Quintet; Schoenberg Verklate Nacht/04 Schoenberg_ Verklärte Nacht, Op. 4 - 4. Sehr Breit Und Langsam.flac
Track gain : -1.08 dB
Peak : 0.988861
CRC32 hash (test run) : CAF47439
CRC32 hash : CAF47439
CRC32 hash (skip zero) : 35853CAE
AccurateRip v1 signature : 550A683F
AccurateRip v2 signature : 96814278
->Accurately ripped (v1+v2, confidence 5+24/29)
Statistics
Read error : 0
Jitter error (maybe fixed) : 0
Retry sector count : 0
Damaged sector count : 0
Track 05
Filename : /Schubert String Quintet; Schoenberg Verklate Nacht/05 Schoenberg_ Verklärte Nacht, Op. 4 - 5. Sehr Ruhig.flac
Track gain : 2.95 dB
Peak : 0.750519
CRC32 hash (test run) : E1C6E420
CRC32 hash : E1C6E420
CRC32 hash (skip zero) : 0BCC5759
AccurateRip v1 signature : 3649222A
AccurateRip v2 signature : D2ED33AE
->Accurately ripped (v1+v2, confidence 5+23/28)
Statistics
Read error : 0
Jitter error (maybe fixed) : 0
Retry sector count : 0
Damaged sector count : 0
Track 06
Filename : /Schubert String Quintet; Schoenberg Verklate Nacht/06 Schubert_ String Quintet In C, D 956 - 1. Allegro Ma Non Troppo.flac
Pre-gap length : 00:10:10
Track gain : -0.13 dB
Peak : 0.947052
CRC32 hash (test run) : 11DFBA74
CRC32 hash : 11DFBA74
CRC32 hash (skip zero) : 5C46B2AB
AccurateRip v1 signature : BF6A4037
AccurateRip v2 signature : 32D5C89E
->Accurately ripped (v1+v2, confidence 5+23/28)
Statistics
Read error : 0
Jitter error (maybe fixed) : 0
Retry sector count : 0
Damaged sector count : 0
Track 07
Filename : /Schubert String Quintet; Schoenberg Verklate Nacht/07 Schubert_ String Quintet In C, D 956 - 2. Adagio.flac
Track gain : 0.95 dB
Peak : 0.983215
CRC32 hash (test run) : 4DA4E0E7
CRC32 hash : 4DA4E0E7
CRC32 hash (skip zero) : F616298B
AccurateRip v1 signature : 7933CC4B
AccurateRip v2 signature : C81349AE
->Accurately ripped (v1+v2, confidence 5+24/29)
Statistics
Read error : 0
Jitter error (maybe fixed) : 0
Retry sector count : 0
Damaged sector count : 0
Track 08
Filename : /Schubert String Quintet; Schoenberg Verklate Nacht/08 Schubert_ String Quintet In C, D 956 - 3. Scherzo, Trio.flac
Track gain : -1.96 dB
Peak : 0.984192
CRC32 hash (test run) : A3921740
CRC32 hash : A3921740
CRC32 hash (skip zero) : F0E941C8
AccurateRip v1 signature : E0D67BA1
AccurateRip v2 signature : BBC43324
->Accurately ripped (v1+v2, confidence 5+24/29)
Statistics
Read error : 0
Jitter error (maybe fixed) : 0
Retry sector count : 0
Damaged sector count : 0
Track 09
Filename : /Schubert String Quintet; Schoenberg Verklate Nacht/09 Schubert_ String Quintet In C, D 956 - 4. Allegretto.flac
Track gain : -1.34 dB
Peak : 0.983185
CRC32 hash (test run) : 546FD14A
CRC32 hash : 546FD14A
CRC32 hash (skip zero) : 90F747D5
AccurateRip v1 signature : AFE4A014
AccurateRip v2 signature : BBAB84E4
->Accurately ripped (v1+v2, confidence 4+24/28)
Statistics
Read error : 0
Jitter error (maybe fixed) : 0
Retry sector count : 0
Damaged sector count : 0
No errors occurred
End of status report
-----BEGIN XLD SIGNATURE-----
rHf26vpxlQCmmzQ4WFZND5FuVHotLvXY.UYx_6SfzPnwhTT4XDJlxAABMmfrqgQ4p6vXeXMXC80OROur1zm0LBmJ1n1AN2sxltWC1.y
-----END XLD SIGNATURE-----

Содержание индексной карты (.CUE)

TITLE "Schubert- String Quintet; Schoenberg- Verklärte Nacht"
PERFORMER "Janine Jansen (vn), Boris Brovtsyn (vn), Maxim Rysanov (vla) Amichai Grosz (Vla), Torleif Thedeén (clo), Jens Peter Maintz (clo)"
CATALOG 0028947835516
REM GENRE "Classical"
REM DATE "2013"
REM DISCNUMBER 1
REM TOTALDISCS 1
REM DISCID 80137D09
REM REPLAYGAIN_ALBUM_GAIN -0.81 dB
REM REPLAYGAIN_ALBUM_PEAK 0.988861
REM COMPILATION TRUE
FILE "01 Schoenberg_ Verklärte Nacht, Op. 4 - 1. Sehr Langsam.flac" WAVE
TRACK 01 AUDIO
TITLE "Schoenberg_ Verklärte Nacht, Op. 4 - 1. Sehr Langsam"
SONGWRITER "Arnold Schoenberg"
ISRC GBF071202771
REM REPLAYGAIN_TRACK_GAIN -0.88 dB
REM REPLAYGAIN_TRACK_PEAK 0.801880
INDEX 01 00:00:00
FILE "02 Schoenberg_ Verklärte Nacht, Op. 4 - 2. Etwas Bewegter.flac" WAVE
TRACK 02 AUDIO
TITLE "Schoenberg_ Verklärte Nacht, Op. 4 - 2. Etwas Bewegter"
SONGWRITER "Arnold Schoenberg"
ISRC GBF071202772
REM REPLAYGAIN_TRACK_GAIN -1.99 dB
REM REPLAYGAIN_TRACK_PEAK 0.986511
INDEX 01 00:00:00
FILE "03 Schoenberg_ Verklärte Nacht, Op. 4 - 3. Schwer Betont.flac" WAVE
TRACK 03 AUDIO
TITLE "Schoenberg_ Verklärte Nacht, Op. 4 - 3. Schwer Betont"
SONGWRITER "Arnold Schoenberg"
ISRC GBF071202773
REM REPLAYGAIN_TRACK_GAIN -1.34 dB
REM REPLAYGAIN_TRACK_PEAK 0.877625
INDEX 01 00:00:00
FILE "04 Schoenberg_ Verklärte Nacht, Op. 4 - 4. Sehr Breit Und Langsam.flac" WAVE
TRACK 04 AUDIO
TITLE "Schoenberg_ Verklärte Nacht, Op. 4 - 4. Sehr Breit Und Langsam"
SONGWRITER "Arnold Schoenberg"
ISRC GBF071202774
REM REPLAYGAIN_TRACK_GAIN -1.08 dB
REM REPLAYGAIN_TRACK_PEAK 0.988861
INDEX 01 00:00:00
FILE "05 Schoenberg_ Verklärte Nacht, Op. 4 - 5. Sehr Ruhig.flac" WAVE
TRACK 05 AUDIO
TITLE "Schoenberg_ Verklärte Nacht, Op. 4 - 5. Sehr Ruhig"
SONGWRITER "Arnold Schoenberg"
ISRC GBF071202775
REM REPLAYGAIN_TRACK_GAIN 2.95 dB
REM REPLAYGAIN_TRACK_PEAK 0.750519
INDEX 01 00:00:00
TRACK 06 AUDIO
TITLE "Schubert_ String Quintet In C, D 956 - 1. Allegro Ma Non Troppo"
SONGWRITER "Franz Schubert"
ISRC GBF071202781
REM REPLAYGAIN_TRACK_GAIN -0.13 dB
REM REPLAYGAIN_TRACK_PEAK 0.947052
INDEX 00 04:22:53
FILE "06 Schubert_ String Quintet In C, D 956 - 1. Allegro Ma Non Troppo.flac" WAVE
INDEX 01 00:00:00
FILE "07 Schubert_ String Quintet In C, D 956 - 2. Adagio.flac" WAVE
TRACK 07 AUDIO
TITLE "Schubert_ String Quintet In C, D 956 - 2. Adagio"
SONGWRITER "Franz Schubert"
ISRC GBF071202782
REM REPLAYGAIN_TRACK_GAIN 0.95 dB
REM REPLAYGAIN_TRACK_PEAK 0.983215
INDEX 01 00:00:00
FILE "08 Schubert_ String Quintet In C, D 956 - 3. Scherzo, Trio.flac" WAVE
TRACK 08 AUDIO
TITLE "Schubert_ String Quintet In C, D 956 - 3. Scherzo, Trio"
SONGWRITER "Franz Schubert"
ISRC GBF071202783
REM REPLAYGAIN_TRACK_GAIN -1.96 dB
REM REPLAYGAIN_TRACK_PEAK 0.984192
INDEX 01 00:00:00
FILE "09 Schubert_ String Quintet In C, D 956 - 4. Allegretto.flac" WAVE
TRACK 09 AUDIO
TITLE "Schubert_ String Quintet In C, D 956 - 4. Allegretto"
SONGWRITER "Franz Schubert"
ISRC GBF071202784
REM REPLAYGAIN_TRACK_GAIN -1.34 dB
REM REPLAYGAIN_TRACK_PEAK 0.983185
INDEX 01 00:00:00

Лог проверки качества

fooCDtect - foobar2000 + auCDtect, baralgin.
auCDtect: CD records authenticity detector, version 0.8.2
Copyright (c) 2004 Oleg Berngardt. All rights reserved.
Copyright (c) 2004 Alexander Djourik. All rights reserved.
mode: 0
===========================================
Track: 02. Schoenberg_ Verklärte Nacht, Op. 4 - 2. Etwas Bewegter
Quality: CDDA 100%
===========================================
Track: 04. Schoenberg_ Verklärte Nacht, Op. 4 - 4. Sehr Breit Und Langsam
Quality: CDDA 100%
===========================================
Track: 01. Schoenberg_ Verklärte Nacht, Op. 4 - 1. Sehr Langsam
Quality: CDDA 100%
===========================================
Track: 05. Schoenberg_ Verklärte Nacht, Op. 4 - 5. Sehr Ruhig
Quality: CDDA 100%
===========================================
Track: 03. Schoenberg_ Verklärte Nacht, Op. 4 - 3. Schwer Betont
Quality: CDDA 100%
===========================================
Track: 08. Schubert_ String Quintet In C, D 956 - 3. Scherzo, Trio
Quality: CDDA 100%
===========================================
Track: 07. Schubert_ String Quintet In C, D 956 - 2. Adagio
Quality: CDDA 100%
===========================================
Track: 09. Schubert_ String Quintet In C, D 956 - 4. Allegretto
Quality: CDDA 100%
===========================================
Track: 06. Schubert_ String Quintet In C, D 956 - 1. Allegro Ma Non Troppo
Quality: CDDA 100%
===========================================

Скриншот спектра частот

Track 9



Показать сообщения:    

Текущее время: 05-Дек 05:26

Часовой пояс: UTC + 3


Вы не можете начинать темы
Вы не можете отвечать на сообщения
Вы не можете редактировать свои сообщения
Вы не можете удалять свои сообщения
Вы не можете голосовать в опросах
Вы не можете прикреплять файлы к сообщениям
Вы не можете скачивать файлы