(Concert for harpsichord and Orchestra, Baroque) Johann Gottfried Muthel - The Five Keyboard Concertos (Marcin Swiatkiewicz, Arte dei Suonatori) - 2015, FLAC (tracks+.cue), lossless


Статистика раздачи [Обновить пиров]
Размер:  713 MB   |    Зарегистрирован:  8 месяцев 14 дней   |    Скачан:  2 раза

Полного источника не было: 5 часов

 
   
 
 
 

[Цитировать]

Johann Gottfried Müthel - The Five Keyboard Concertos
Жанр: Concert for harpsichord and Orchestra
Страна-производитель диска: Швейцария
Год издания диска: 2015
Издатель (лейбл): BIS
Дата записи: 2013
Аудиокодек: FLAC
Тип рипа: tracks+.cue
Битрейт аудио: lossless
Продолжительность: 127:08
Источник: релизер (sddd)
Исполнители:
Marcin Swiatkiewicz, harpsichord,
Arte dei Suonatori, ensemble.
Recorded on May 2013, Warsaw, Polish Radio (Lutoslawski Studio).

Лог создания рипаЛог создания рипа CD 1

X Lossless Decoder version 20141129a (148.2)
XLD extraction logfile from 2015-11-18 14:24:07 +0100
Marcin Swiatkiewicz/Arte dei Suonatori / Johann Gottfried Müthel: The Five Keyboard Concertos
Used drive : MATSHITA DVD-R UJ-898 (revision HD10)
Media type : Pressed CD
Ripper mode : XLD Secure Ripper
Disable audio cache : OK for the drive with a cache less than 1375KiB
Make use of C2 pointers : NO
Read offset correction : 102
Max retry count : 20
Gap status : Analyzed, Appended (except HTOA)
TOC of the extracted CD
Track | Start | Length | Start sector | End sector
---------------------------------------------------------
1 | 00:00:00 | 11:35:28 | 0 | 52152
2 | 11:35:28 | 11:18:10 | 52153 | 103012
3 | 22:53:38 | 09:09:08 | 103013 | 144195
4 | 32:02:46 | 09:11:48 | 144196 | 185568
5 | 41:14:19 | 07:59:14 | 185569 | 221507
6 | 49:13:33 | 05:45:39 | 221508 | 247421
AccurateRip Summary (DiscID: 000e8e05-004bf921-600ce206)
Track 01 : OK (v2, confidence 2/2)
Track 02 : OK (v2, confidence 2/2)
Track 03 : OK (v2, confidence 2/2)
Track 04 : OK (v2, confidence 2/2)
Track 05 : OK (v2, confidence 2/2)
Track 06 : OK (v2, confidence 2/2)
->All tracks accurately ripped.
All Tracks
Album gain : 1.27 dB
Peak : 0.932190
Statistics
Read error : 0
Jitter error (maybe fixed) : 0
Retry sector count : 0
Damaged sector count : 0
Track 01
Filename : /Volumes/WINDOWS/rips/Marcin Swiatkiewicz/Arte dei Suonatori - Johann Gottfried Müthel: The Five Keyboard Concertos (2015) [FLAC]/01 Keyboard Concerto No.1 in C minor: I. Andante.flac
Pre-gap length : 00:02:00
Track gain : 1.43 dB
Peak : 0.749817
CRC32 hash (test run) : F51504DC
CRC32 hash : F51504DC
CRC32 hash (skip zero) : 8B7293D2
AccurateRip v1 signature : 1A1B1B69
AccurateRip v2 signature : EC401C92
->Accurately ripped (v2, confidence 2/2)
Statistics
Read error : 0
Jitter error (maybe fixed) : 0
Retry sector count : 0
Damaged sector count : 0
Track 02
Filename : /Volumes/WINDOWS/rips/Marcin Swiatkiewicz/Arte dei Suonatori - Johann Gottfried Müthel: The Five Keyboard Concertos (2015) [FLAC]/02 Keyboard Concerto No.1 in C minor: II. Adagio.flac
Track gain : 4.14 dB
Peak : 0.568787
CRC32 hash (test run) : 030F9E05
CRC32 hash : 030F9E05
CRC32 hash (skip zero) : 2B4C2E99
AccurateRip v1 signature : 8FE1FD57
AccurateRip v2 signature : B0C4E8A3
->Accurately ripped (v2, confidence 2/2)
Statistics
Read error : 0
Jitter error (maybe fixed) : 0
Retry sector count : 0
Damaged sector count : 0
Track 03
Filename : /Volumes/WINDOWS/rips/Marcin Swiatkiewicz/Arte dei Suonatori - Johann Gottfried Müthel: The Five Keyboard Concertos (2015) [FLAC]/03 Keyboard Concerto No.1 in C minor: III. Allegro ma non troppo.flac
Track gain : 0.83 dB
Peak : 0.836914
CRC32 hash (test run) : C9526BDE
CRC32 hash : C9526BDE
CRC32 hash (skip zero) : AC48C991
AccurateRip v1 signature : C252C1C5
AccurateRip v2 signature : 2CDA764F
->Accurately ripped (v2, confidence 2/2)
Statistics
Read error : 0
Jitter error (maybe fixed) : 0
Retry sector count : 0
Damaged sector count : 0
Track 04
Filename : /Volumes/WINDOWS/rips/Marcin Swiatkiewicz/Arte dei Suonatori - Johann Gottfried Müthel: The Five Keyboard Concertos (2015) [FLAC]/04 Keyboard Concerto No.2 in D minor: I. Moderato.flac
Track gain : 1.31 dB
Peak : 0.777863
CRC32 hash (test run) : 7A1A2F64
CRC32 hash : 7A1A2F64
CRC32 hash (skip zero) : 17DDA508
AccurateRip v1 signature : 08AB1333
AccurateRip v2 signature : 799C0D6C
->Accurately ripped (v2, confidence 2/2)
Statistics
Read error : 0
Jitter error (maybe fixed) : 0
Retry sector count : 0
Damaged sector count : 0
Track 05
Filename : /Volumes/WINDOWS/rips/Marcin Swiatkiewicz/Arte dei Suonatori - Johann Gottfried Müthel: The Five Keyboard Concertos (2015) [FLAC]/05 Keyboard Concerto No.2 in D minor: II. Adagio.flac
Track gain : 0.74 dB
Peak : 0.919861
CRC32 hash (test run) : ECF67F23
CRC32 hash : ECF67F23
CRC32 hash (skip zero) : 8A1B5C13
AccurateRip v1 signature : F7561C3C
AccurateRip v2 signature : 25A4833A
->Accurately ripped (v2, confidence 2/2)
Statistics
Read error : 0
Jitter error (maybe fixed) : 0
Retry sector count : 0
Damaged sector count : 0
Track 06
Filename : /Volumes/WINDOWS/rips/Marcin Swiatkiewicz/Arte dei Suonatori - Johann Gottfried Müthel: The Five Keyboard Concertos (2015) [FLAC]/06 Keyboard Concerto No.2 in D minor: III. Allegro di molto.flac
Track gain : -0.27 dB
Peak : 0.932190
CRC32 hash (test run) : 2408D8D8
CRC32 hash : 2408D8D8
CRC32 hash (skip zero) : 46BA6A8B
AccurateRip v1 signature : 4034392C
AccurateRip v2 signature : AF614B1E
->Accurately ripped (v2, confidence 2/2)
Statistics
Read error : 0
Jitter error (maybe fixed) : 0
Retry sector count : 0
Damaged sector count : 0
No errors occurred
End of status report
-----BEGIN XLD SIGNATURE-----
a.Di4wKIKU7WBfc19fsEucscltZw7BU6m7ir5QKgLrvje0orHQ6JiGMlYyjmbOat7avWpPbbV8PdsSwRQMYnpNaSplpr.wZ2qclyQIi
-----END XLD SIGNATURE-----

Лог создания рипа CD 2

X Lossless Decoder version 20141129a (148.2)
XLD extraction logfile from 2015-11-18 15:00:19 +0100
Johann Gottfried Müthel / N°4 concerto clavecin DM [Świątkiewicz, Arte dei Suonatori]
Used drive : MATSHITA DVD-R UJ-898 (revision HD10)
Media type : Pressed CD
Ripper mode : XLD Secure Ripper
Disable audio cache : OK for the drive with a cache less than 1375KiB
Make use of C2 pointers : NO
Read offset correction : 102
Max retry count : 20
Gap status : Analyzed, Appended (except HTOA)
TOC of the extracted CD
Track | Start | Length | Start sector | End sector
---------------------------------------------------------
1 | 00:00:00 | 07:10:12 | 0 | 32261
2 | 07:10:12 | 10:49:68 | 32262 | 81004
3 | 18:00:05 | 06:05:13 | 81005 | 108392
4 | 24:05:18 | 09:02:03 | 108393 | 149045
5 | 33:07:21 | 09:20:71 | 149046 | 191116
6 | 42:28:17 | 04:50:69 | 191117 | 212935
7 | 47:19:11 | 07:51:10 | 212936 | 248270
8 | 55:10:21 | 10:11:07 | 248271 | 294102
9 | 65:21:28 | 06:51:14 | 294103 | 324941
AccurateRip Summary (DiscID: 00190e5b-00b732df-7610ec09)
Track 01 : OK (v2, confidence 2/2)
Track 02 : OK (v2, confidence 2/2)
Track 03 : OK (v2, confidence 2/2)
Track 04 : OK (v2, confidence 2/2)
Track 05 : OK (v2, confidence 2/2)
Track 06 : OK (v2, confidence 2/2)
Track 07 : OK (v2, confidence 2/2)
Track 08 : OK (v2, confidence 2/2)
Track 09 : OK (v2, confidence 2/2)
->All tracks accurately ripped.
All Tracks
Album gain : 2.20 dB
Peak : 0.952301
Statistics
Read error : 0
Jitter error (maybe fixed) : 0
Retry sector count : 0
Damaged sector count : 0
Track 01
Filename : /Volumes/WINDOWS/rips/Marcin Swiatkiewicz/Arte dei Suonatori - Johann Gottfried Müthel: The Five Keyboard Concertos (2015) [FLAC]/Johann Gottfried Müthel - N°4 concerto clavecin DM [Świątkiewicz, Arte dei Suonatori] (2013) [FLAC]/01 1. Moderato.flac
Pre-gap length : 00:02:00
Track gain : 2.32 dB
Peak : 0.629974
CRC32 hash (test run) : DD632E7F
CRC32 hash : DD632E7F
CRC32 hash (skip zero) : EDB44D12
AccurateRip v1 signature : 6E3E2C04
AccurateRip v2 signature : 56F1A4BA
->Accurately ripped (v2, confidence 2/2)
Statistics
Read error : 0
Jitter error (maybe fixed) : 0
Retry sector count : 0
Damaged sector count : 0
Track 02
Filename : /Volumes/WINDOWS/rips/Marcin Swiatkiewicz/Arte dei Suonatori - Johann Gottfried Müthel: The Five Keyboard Concertos (2015) [FLAC]/Johann Gottfried Müthel - N°4 concerto clavecin DM [Świątkiewicz, Arte dei Suonatori] (2013) [FLAC]/02 2. Adagio.flac
Track gain : 1.99 dB
Peak : 0.952301
CRC32 hash (test run) : AC1AD78E
CRC32 hash : AC1AD78E
CRC32 hash (skip zero) : 6BED1FED
AccurateRip v1 signature : 352F2BC3
AccurateRip v2 signature : 80744267
->Accurately ripped (v2, confidence 2/2)
Statistics
Read error : 0
Jitter error (maybe fixed) : 0
Retry sector count : 0
Damaged sector count : 0
Track 03
Filename : /Volumes/WINDOWS/rips/Marcin Swiatkiewicz/Arte dei Suonatori - Johann Gottfried Müthel: The Five Keyboard Concertos (2015) [FLAC]/Johann Gottfried Müthel - N°4 concerto clavecin DM [Świątkiewicz, Arte dei Suonatori] (2013) [FLAC]/03 3. Allegro ma non troppo.flac
Track gain : 2.05 dB
Peak : 0.634644
CRC32 hash (test run) : 30123CE6
CRC32 hash : 30123CE6
CRC32 hash (skip zero) : A4C3E72B
AccurateRip v1 signature : 93A2299C
AccurateRip v2 signature : B69DA371
->Accurately ripped (v2, confidence 2/2)
Statistics
Read error : 0
Jitter error (maybe fixed) : 0
Retry sector count : 0
Damaged sector count : 0
Track 04
Filename : /Volumes/WINDOWS/rips/Marcin Swiatkiewicz/Arte dei Suonatori - Johann Gottfried Müthel: The Five Keyboard Concertos (2015) [FLAC]/Johann Gottfried Müthel - N°4 concerto clavecin DM [Świątkiewicz, Arte dei Suonatori] (2013) [FLAC]/04 N°3 concerto clavecin GM 1. Non troppo allegro.flac
Track gain : 2.34 dB
Peak : 0.635742
CRC32 hash (test run) : 33B08C57
CRC32 hash : 33B08C57
CRC32 hash (skip zero) : 8EEDB5D5
AccurateRip v1 signature : 3325609C
AccurateRip v2 signature : 49CC5F06
->Accurately ripped (v2, confidence 2/2)
Statistics
Read error : 0
Jitter error (maybe fixed) : 0
Retry sector count : 0
Damaged sector count : 0
Track 05
Filename : /Volumes/WINDOWS/rips/Marcin Swiatkiewicz/Arte dei Suonatori - Johann Gottfried Müthel: The Five Keyboard Concertos (2015) [FLAC]/Johann Gottfried Müthel - N°4 concerto clavecin DM [Świątkiewicz, Arte dei Suonatori] (2013) [FLAC]/05 2. Un poco adagio.flac
Track gain : 2.93 dB
Peak : 0.620789
CRC32 hash (test run) : B4FE23D3
CRC32 hash : B4FE23D3
CRC32 hash (skip zero) : 378004C5
AccurateRip v1 signature : 929067AE
AccurateRip v2 signature : C672772A
->Accurately ripped (v2, confidence 2/2)
Statistics
Read error : 0
Jitter error (maybe fixed) : 0
Retry sector count : 0
Damaged sector count : 0
Track 06
Filename : /Volumes/WINDOWS/rips/Marcin Swiatkiewicz/Arte dei Suonatori - Johann Gottfried Müthel: The Five Keyboard Concertos (2015) [FLAC]/Johann Gottfried Müthel - N°4 concerto clavecin DM [Świątkiewicz, Arte dei Suonatori] (2013) [FLAC]/06 3. Vivace.flac
Track gain : 2.42 dB
Peak : 0.585205
CRC32 hash (test run) : 61150DD3
CRC32 hash : 61150DD3
CRC32 hash (skip zero) : 72BC3A1A
AccurateRip v1 signature : CA544ADA
AccurateRip v2 signature : 77DFA4E2
->Accurately ripped (v2, confidence 2/2)
Statistics
Read error : 0
Jitter error (maybe fixed) : 0
Retry sector count : 0
Damaged sector count : 0
Track 07
Filename : /Volumes/WINDOWS/rips/Marcin Swiatkiewicz/Arte dei Suonatori - Johann Gottfried Müthel: The Five Keyboard Concertos (2015) [FLAC]/Johann Gottfried Müthel - N°4 concerto clavecin DM [Świątkiewicz, Arte dei Suonatori] (2013) [FLAC]/07 N°5 concerto clavecin BbM 1. Allegro....flac
Track gain : 0.98 dB
Peak : 0.849365
CRC32 hash (test run) : 9239E9B7
CRC32 hash : 9239E9B7
CRC32 hash (skip zero) : E192607B
AccurateRip v1 signature : 6F47103D
AccurateRip v2 signature : 1E928A9F
->Accurately ripped (v2, confidence 2/2)
Statistics
Read error : 0
Jitter error (maybe fixed) : 0
Retry sector count : 0
Damaged sector count : 0
Track 08
Filename : /Volumes/WINDOWS/rips/Marcin Swiatkiewicz/Arte dei Suonatori - Johann Gottfried Müthel: The Five Keyboard Concertos (2015) [FLAC]/Johann Gottfried Müthel - N°4 concerto clavecin DM [Świątkiewicz, Arte dei Suonatori] (2013) [FLAC]/08 2. Poco adagio.flac
Track gain : 4.11 dB
Peak : 0.689850
CRC32 hash (test run) : 5FDF6E3B
CRC32 hash : 5FDF6E3B
CRC32 hash (skip zero) : 47B4627F
AccurateRip v1 signature : 73BC343A
AccurateRip v2 signature : 442E5648
->Accurately ripped (v2, confidence 2/2)
Statistics
Read error : 0
Jitter error (maybe fixed) : 0
Retry sector count : 0
Damaged sector count : 0
Track 09
Filename : /Volumes/WINDOWS/rips/Marcin Swiatkiewicz/Arte dei Suonatori - Johann Gottfried Müthel: The Five Keyboard Concertos (2015) [FLAC]/Johann Gottfried Müthel - N°4 concerto clavecin DM [Świątkiewicz, Arte dei Suonatori] (2013) [FLAC]/09 3. Allegro.flac
Track gain : 1.29 dB
Peak : 0.815826
CRC32 hash (test run) : D9CEEF77
CRC32 hash : D9CEEF77
CRC32 hash (skip zero) : 8E486715
AccurateRip v1 signature : 37F7C819
AccurateRip v2 signature : 56737861
->Accurately ripped (v2, confidence 2/2)
Statistics
Read error : 0
Jitter error (maybe fixed) : 0
Retry sector count : 0
Damaged sector count : 0
No errors occurred
End of status report
-----BEGIN XLD SIGNATURE-----
6UlE.qAqs423M0zNgGZSz1gCWTc.rU61CzUlUTjZs6t2CWhblhLjLabX9EdezSIgT9AlI93ScSjbSVNJkz4pw_m0fYspjZrLAWzMi_S
-----END XLD SIGNATURE-----

Содержание индексной карты (.CUE)Содержание индексной карты (.CUE) CD 1

TITLE "Johann Gottfried Müthel: The Five Keyboard Concertos"
PERFORMER "Marcin Swiatkiewicz/Arte dei Suonatori"
CATALOG 7318592179015
REM GENRE "Concerto"
REM DATE "2015"
REM DISCNUMBER 1
REM TOTALDISCS 2
REM DISCID 600CE206
REM REPLAYGAIN_ALBUM_GAIN 1.27 dB
REM REPLAYGAIN_ALBUM_PEAK 0.932190
FILE "01 Keyboard Concerto No.1 in C minor: I. Andante.flac" WAVE
TRACK 01 AUDIO
TITLE "Keyboard Concerto No.1 in C minor: I. Andante"
ISRC SEAEW1479010
REM REPLAYGAIN_TRACK_GAIN 1.43 dB
REM REPLAYGAIN_TRACK_PEAK 0.749817
INDEX 01 00:00:00
FILE "02 Keyboard Concerto No.1 in C minor: II. Adagio.flac" WAVE
TRACK 02 AUDIO
TITLE "Keyboard Concerto No.1 in C minor: II. Adagio"
ISRC SEAEW1479020
REM REPLAYGAIN_TRACK_GAIN 4.14 dB
REM REPLAYGAIN_TRACK_PEAK 0.568787
INDEX 01 00:00:00
FILE "03 Keyboard Concerto No.1 in C minor: III. Allegro ma non troppo.flac" WAVE
TRACK 03 AUDIO
TITLE "Keyboard Concerto No.1 in C minor: III. Allegro ma non troppo"
ISRC SEAEW1479030
REM REPLAYGAIN_TRACK_GAIN 0.83 dB
REM REPLAYGAIN_TRACK_PEAK 0.836914
INDEX 01 00:00:00
FILE "04 Keyboard Concerto No.2 in D minor: I. Moderato.flac" WAVE
TRACK 04 AUDIO
TITLE "Keyboard Concerto No.2 in D minor: I. Moderato"
ISRC SEAEW1479040
REM REPLAYGAIN_TRACK_GAIN 1.31 dB
REM REPLAYGAIN_TRACK_PEAK 0.777863
INDEX 01 00:00:00
FILE "05 Keyboard Concerto No.2 in D minor: II. Adagio.flac" WAVE
TRACK 05 AUDIO
TITLE "Keyboard Concerto No.2 in D minor: II. Adagio"
ISRC SEAEW1479050
REM REPLAYGAIN_TRACK_GAIN 0.74 dB
REM REPLAYGAIN_TRACK_PEAK 0.919861
INDEX 01 00:00:00
FILE "06 Keyboard Concerto No.2 in D minor: III. Allegro di molto.flac" WAVE
TRACK 06 AUDIO
TITLE "Keyboard Concerto No.2 in D minor: III. Allegro di molto"
ISRC SEAEW1479060
REM REPLAYGAIN_TRACK_GAIN -0.27 dB
REM REPLAYGAIN_TRACK_PEAK 0.932190
INDEX 01 00:00:00

Содержание индексной карты (.CUE) CD 2

TITLE "N°4 concerto clavecin DM [Świątkiewicz, Arte dei Suonatori]"
PERFORMER "Johann Gottfried Müthel"
CATALOG 7318592179022
REM GENRE "18°Cla Chambre"
REM DATE "2013"
REM DISCNUMBER 2
REM TOTALDISCS 2
REM DISCID 7610EC09
REM REPLAYGAIN_ALBUM_GAIN 2.20 dB
REM REPLAYGAIN_ALBUM_PEAK 0.952301
FILE "01 1. Moderato.flac" WAVE
TRACK 01 AUDIO
TITLE "1. Moderato"
ISRC SEAEW1479070
REM REPLAYGAIN_TRACK_GAIN 2.32 dB
REM REPLAYGAIN_TRACK_PEAK 0.629974
INDEX 01 00:00:00
FILE "02 2. Adagio.flac" WAVE
TRACK 02 AUDIO
TITLE "2. Adagio"
ISRC SEAEW1479080
REM REPLAYGAIN_TRACK_GAIN 1.99 dB
REM REPLAYGAIN_TRACK_PEAK 0.952301
INDEX 01 00:00:00
FILE "03 3. Allegro ma non troppo.flac" WAVE
TRACK 03 AUDIO
TITLE "3. Allegro ma non troppo"
ISRC SEAEW1479090
REM REPLAYGAIN_TRACK_GAIN 2.05 dB
REM REPLAYGAIN_TRACK_PEAK 0.634644
INDEX 01 00:00:00
FILE "04 N°3 concerto clavecin GM 1. Non troppo allegro.flac" WAVE
TRACK 04 AUDIO
TITLE "N°3 concerto clavecin GM 1. Non troppo allegro"
ISRC SEAEW1479100
REM REPLAYGAIN_TRACK_GAIN 2.34 dB
REM REPLAYGAIN_TRACK_PEAK 0.635742
INDEX 01 00:00:00
FILE "05 2. Un poco adagio.flac" WAVE
TRACK 05 AUDIO
TITLE "2. Un poco adagio"
ISRC SEAEW1479110
REM REPLAYGAIN_TRACK_GAIN 2.93 dB
REM REPLAYGAIN_TRACK_PEAK 0.620789
INDEX 01 00:00:00
FILE "06 3. Vivace.flac" WAVE
TRACK 06 AUDIO
TITLE "3. Vivace"
ISRC SEAEW1479120
REM REPLAYGAIN_TRACK_GAIN 2.42 dB
REM REPLAYGAIN_TRACK_PEAK 0.585205
INDEX 01 00:00:00
FILE "07 N°5 concerto clavecin BbM 1. Allegro....flac" WAVE
TRACK 07 AUDIO
TITLE "N°5 concerto clavecin BbM 1. Allegro..."
ISRC SEAEW1479130
REM REPLAYGAIN_TRACK_GAIN 0.98 dB
REM REPLAYGAIN_TRACK_PEAK 0.849365
INDEX 01 00:00:00
FILE "08 2. Poco adagio.flac" WAVE
TRACK 08 AUDIO
TITLE "2. Poco adagio"
ISRC SEAEW1479140
REM REPLAYGAIN_TRACK_GAIN 4.11 dB
REM REPLAYGAIN_TRACK_PEAK 0.689850
INDEX 01 00:00:00
FILE "09 3. Allegro.flac" WAVE
TRACK 09 AUDIO
TITLE "3. Allegro"
ISRC SEAEW1479150
REM REPLAYGAIN_TRACK_GAIN 1.29 dB
REM REPLAYGAIN_TRACK_PEAK 0.815826
INDEX 01 00:00:00

Треклист

Keyboard Concerto No.1 in C minor:
1. I. Andante 11'28
2. II. Adagio 11'13
3. III. Allegro ma non troppo 8'50
Keyboard Concerto No.2 in D minor:
4. I. Moderato 9'04
5. II. Adagio 7'58
6. III. Allegro di molto 5'16
Keyboard Concerto No.4 in D major:
1. I. Moderato 7'03
2. II. Adagio 10'46
3. III. Allegro ma non troppo 5'48
Keyboard Concerto No.3 in G major:
4. I. Non troppo Allegro 8'52
5. II. Un poco Adagio 9'17
6. III. Vivace 4'33
Keyboard Concerto No.5 in B flat major:
7. I. Allegro - Adagio (Recitativo) - Poco Adagio - Allegro... - 7'49
8. II. Poco Adagio 10'09
9. III. Allegro 6'19
[teatrix.ru].t22634.torrent 
Торрент: Зарегистрирован [ 2016-03-21 00:38 ] · 7DC11620AA0E5B4D7711D496FA379654583DCF51

Скачать .torrent

Скачать

16 KB

Статус: проверено
Скачан: 2 раз
Размер: 713 MB
terms.php



Быстрый ответ

Имя:

      
Для отправки сообщений необходимо включить JavaScript
Показать сообщения:    

Текущее время: 04-Дек 09:09

Часовой пояс: UTC + 3


Вы можете начинать темы
Вы можете отвечать на сообщения
Вы не можете редактировать свои сообщения
Вы не можете удалять свои сообщения
Вы не можете голосовать в опросах
Вы не можете прикреплять файлы к сообщениям
Вы можете скачивать файлы