(Classical) The Virtuoso Clarinet, Vol.2: Debussy, Widor, Bernstein, Milhaud, Pierne, Martinu, Muczynski, Rabaud - Michael Collins, Michael McHale - 2014, FLAC (image+.cue) lossless


 

[Цитировать]

The Virtuoso Clarinet, Vol.2: Debussy, Widor, Bernstein, Milhaud, Pierné, Martinů, Muczynski, Rabaud - Michael Collins, Michael McHale
Жанр: Classical
Страна-производитель диска: UK
Год издания диска: 2014
Издатель (лейбл): Chandos Records
Номер по каталогу: CHAN 10804
Дата записи: 2013
Аудиокодек: FLAC
Тип рипа: image+.cue
Битрейт аудио: lossless
Продолжительность: 70:22
Источник: собственный рип
Наличие сканов в содержимом раздачи: да
Треклист:
Achille-Claude Debussy (1862 – 1918)
[1] Première Rhapsodie (1909 – 10)
Charles-Marie Widor (1844 – 1937)
[2] Introduction et rondo, Op. 72 (1898)
Leonard Bernstein (1918 – 1990)
[3]-[4] Sonata (1941 – 42)
Darius Milhaud (1892 – 1974)
[5] Duo concertant, Op. 351 (1956)
Gabriel Pierné (1863 – 1937)
[6] Canzonetta, Op. 19 (1888)
Bohuslav Martinů (1890 – 1959)
[7]-[9] Sonatina, H 356 (1956)
Robert Muczynski (1929 – 2010)
[10]-[13] Time Pieces, Op. 43 (1983)
Henri Rabaud (1873 – 1949)
[14] Solo de concours, Op. 10 (1901)
Исполнители:
Michael Collins clarinet
Michael McHale piano

Лог создания рипа

Exact Audio Copy V1.0 beta 3 from 29. August 2011
EAC extraction logfile from 28. March 2015, 0:56
Michael Collins, Michael McHale / The Virtuoso Clarinet, Vol.2
Used drive : HL-DT-STDVDRAM GU70N Adapter: 0 ID: 0
Read mode : Secure
Utilize accurate stream : Yes
Defeat audio cache : Yes
Make use of C2 pointers : No
Read offset correction : 48
Overread into Lead-In and Lead-Out : No
Fill up missing offset samples with silence : Yes
Delete leading and trailing silent blocks : No
Null samples used in CRC calculations : Yes
Used interface : Native Win32 interface for Win NT & 2000
Used output format : User Defined Encoder
Selected bitrate : 128 kBit/s
Quality : High
Add ID3 tag : No
Command line compressor : C:\Program Files (x86)\Exact Audio Copy\Flac\flac.exe
Additional command line options : -V -8 -T "Date=%year%" -T "Genre=%genre%" %source%
TOC of the extracted CD
Track | Start | Length | Start sector | End sector
---------------------------------------------------------
1 | 0:00.00 | 8:34.55 | 0 | 38604
2 | 8:34.55 | 8:06.52 | 38605 | 75106
3 | 16:41.32 | 3:47.58 | 75107 | 92189
4 | 20:29.15 | 6:54.39 | 92190 | 123278
5 | 27:23.54 | 6:42.59 | 123279 | 153487
6 | 34:06.38 | 3:42.64 | 153488 | 170201
7 | 37:49.27 | 5:24.00 | 170202 | 194501
8 | 43:13.27 | 3:05.60 | 194502 | 208436
9 | 46:19.12 | 2:22.05 | 208437 | 219091
10 | 48:41.17 | 2:38.15 | 219092 | 230956
11 | 51:19.32 | 5:44.26 | 230957 | 256782
12 | 57:03.58 | 2:14.04 | 256783 | 266836
13 | 59:17.62 | 5:16.14 | 266837 | 290550
14 | 64:34.01 | 5:49.72 | 290551 | 316797
Range status and errors
Selected range
Filename C:\temp\CHAN_10804 - The Virtuoso Clarinet, Vol.2 - Collins, McHale\The Virtuoso Clarinet, Vol.2.wav
Peak level 95.7 %
Extraction speed 2.3 X
Range quality 100.0 %
Test CRC C4E7C93C
Copy CRC C4E7C93C
Copy OK
No errors occurred
AccurateRip summary
Track 1 not present in database
Track 2 not present in database
Track 3 not present in database
Track 4 not present in database
Track 5 not present in database
Track 6 not present in database
Track 7 not present in database
Track 8 not present in database
Track 9 not present in database
Track 10 not present in database
Track 11 not present in database
Track 12 not present in database
Track 13 not present in database
Track 14 not present in database
None of the tracks are present in the AccurateRip database
End of status report
==== Log checksum 9D34235E6626615A8C24D64DE258DBD3D299B64CA8A6552BCE28B21407C35D9F ====



Показать сообщения:    

Текущее время: 06-Дек 11:11

Часовой пояс: UTC + 3


Вы не можете начинать темы
Вы не можете отвечать на сообщения
Вы не можете редактировать свои сообщения
Вы не можете удалять свои сообщения
Вы не можете голосовать в опросах
Вы не можете прикреплять файлы к сообщениям
Вы не можете скачивать файлы