[TR24][OF] Robert Schumann & Alban Berg - Song cycle for voice and piano: Op. 39 Liederkreis, Seven Early Songs, Frauenliebe und Leben (Dorothea Roschmann & Mitsuko Uchida), 2015 - live from Wigmore Hall (Classical, Vocal, Song, Chamber)


Статистика раздачи [Обновить пиров]
Размер:  1.04 GB   |    Зарегистрирован:  8 месяцев 19 дней   |    Скачан:  1 раз

Полного источника не было: 20 дней

 
   
 
 
 

[Цитировать]

Schumann & Berg: Song cycle for voice and piano (Dorothea Roschmann & Mitsuko Uchida)
Формат записи/Источник записи: [TR24][OF]
Наличие водяных знаков: Нет
Год издания/переиздания диска: 2015
Жанр: Vocal, Song, Chamber
Издатель(лейбл): DECCA
Продолжительность: 01:08:27
Исполнитель:
Dorothea Roschmann, soprano,
Mitsuko Uchida, piano.
Recorded live at the Wigmore Hall, London, May 02 and 05, 2015.
Контейнер: FLAC (*.flac)
Тип рипа: tracks
Разрядность: 24/96
Количество каналов: 2.0
Источник: qobuz

DR-Report

foobar2000 1.3.6 / Замер динамического диапазона (DR) 1.1.1
Дата отчёта: 2015-11-26 00:02:21
--------------------------------------------------------------------------------
Анализ: Dorothea Röschmann, Associated Performer, Main Artist, Soprano - Mitsuko Uchida, Associated Performer, Main Artist, Piano - Adelbert von Chamisso, Author - Robert Schumann, Composer / Mitsuko Uchida : Schumann: Liederkreis; Frauenliebe und Leben; Berg: Sieben frühe Lieder (1-8)
Dorothea Röschmann, Associated Performer, Main Artist, Soprano - Mitsuko Uchida, Associated Performer, Main Artist, Piano - Alban Berg, Composer - Universal Edition, Wien / Mitsuko Uchida : Schumann: Liederkreis; Frauenliebe und Leben; Berg: Sieben frühe Lieder (9-15)
Dorothea Röschmann, Associated Performer, Main Artist, Soprano - Mitsuko Uchida, Associated Performer, Main Artist, Piano - Joseph Freiherr von Eichendorff, Author - Robert Schumann, Composer / Mitsuko Uchida : Schumann: Liederkreis; Frauenliebe und Leben; Berg: Sieben frühe Lieder (16-27)
--------------------------------------------------------------------------------
DR Пики RMS Продолжительность трека
--------------------------------------------------------------------------------
DR12 -7.47 дБ -27.15 дБ 2:40 20-Frauenliebe und -leben Op.42:1. Seit ich ihn gesehen
DR14 -1.14 дБ -22.07 дБ 3:41 21-Frauenliebe und -leben Op.42:2. Er, der Herrlichste von allen
DR16 -1.95 дБ -23.81 дБ 1:58 22-Frauenliebe und -leben Op.42:3. Ich kann's nicht fassen, nicht glauben
DR15 -2.09 дБ -24.82 дБ 3:02 23-Frauenliebe und -leben Op.42:4. Du Ring an meinem Finger
DR13 -1.99 дБ -22.94 дБ 2:15 24-Frauenliebe und -leben Op.42:5. Helft mir, ihr Schwestern
DR17 -4.46 дБ -27.52 дБ 4:43 25-Frauenliebe und -leben Op.42:6. Süsser Freund, du blickest mich verwundert an
DR13 -5.72 дБ -22.81 дБ 1:33 26-Frauenliebe und -leben Op.42:7. An meinem Herzen, an meiner Brust
DR16 -6.32 дБ -30.09 дБ 4:39 27-Frauenliebe und -leben Op.42:8. Nun hast du mir den ersten Schmerz getan
DR15 -0.37 дБ -22.92 дБ 4:14 13-Sieben frühe Lieder:1. Nacht
DR15 -3.32 дБ -23.70 дБ 2:18 14-Sieben frühe Lieder:2. Schilflied
DR14 -0.34 дБ -20.58 дБ 2:14 15-Sieben frühe Lieder:3. Die Nachtigall
DR15 -2.11 дБ -23.28 дБ 2:42 16-Sieben frühe Lieder:4. Traumgekrönt
DR13 -1.10 дБ -23.18 дБ 1:21 17-Sieben frühe Lieder:5. Im Zimmer
DR14 -0.38 дБ -20.50 дБ 1:57 18-Sieben frühe Lieder:6. Liebesode
DR13 -0.86 дБ -19.57 дБ 2:00 19-Sieben frühe Lieder:7. Sommertage
DR11 -5.90 дБ -25.78 дБ 1:45 01-Liederkreis, Op.39:In der Fremde
DR13 -1.53 дБ -24.15 дБ 1:53 02-Liederkreis, Op.39:Intermezzo
DR15 -1.33 дБ -22.12 дБ 2:38 03-Liederkreis, Op.39:Waldesgespräch
DR15 -1.03 дБ -24.75 дБ 1:49 04-Liederkreis, Op.39:Die Stille
DR15 -3.45 дБ -24.80 дБ 3:52 05-Liederkreis, Op.39:Mondnacht
DR13 -0.98 дБ -20.35 дБ 1:22 06-Liederkreis, Op.39:Schöne Fremde
DR14 -8.76 дБ -29.99 дБ 3:19 07-Liederkreis, Op.39:Auf einer Burg
DR14 -3.23 дБ -23.31 дБ 1:25 08-Liederkreis, Op.39:In der Fremde ("Ich hör die Bachlein rauschen")
DR12 -6.24 дБ -28.22 дБ 2:40 09-Liederkreis, Op.39:Wehmut
DR14 -5.70 дБ -27.60 дБ 3:30 10-Liederkreis, Op.39:Zwielicht
DR13 -5.46 дБ -24.91 дБ 1:36 11-Liederkreis, Op.39:Im Walde
DR12 -2.76 дБ -20.85 дБ 1:34 12-Liederkreis, Op.39:Frühlingsnacht
--------------------------------------------------------------------------------
Количество треков: 27
Реальные значения DR: DR14
Частота: 96000 Гц
Каналов: 2
Разрядность: 24
Битрейт: 2207 кбит/с
Кодек: FLAC
================================================================================

Треклист

Robert Schumann - Liederkreis, Op.39:
1. I. In der Fremde
2. II. Intermezzo
3. III. Waldesgespräch
4. IV. Die Stille
5. V. Mondnacht
6. VI. Schöne Fremde
7. VII. Auf einer Burg
8. VIII. In der Fremde
9. IX. Wehmut
10. X. Zwielicht
11. XI. Im Walde
12. XII. Frühlingsnacht
Alban Berg - Sieben frühe Lieder:
13. I. Nacht
14. II. Schilflied
15. III. Die Nachtigall
16. IV. Traumgekrönt
17. V. Im Zimmer
18. VI. Liebesode
19. VII. Sommertage
Robert Schumann - Frauenliebe und leben Op.42:
20. I. Seit ich ihn gesehen
21. II. Er, der Herrlichste von allen
22. III. Ich kann's nicht fassen, nicht glauben
23. IV. Du Ring an meinem Finger
24. V. Helft mir, ihr Schwestern
25. VI. Süßer Freund, du blickest mich verwundert an
26. VII. An meinem Herzen, an meiner Brust
27. VII. Nun hast du mir den ersten Schmerz getan
[teatrix.ru].t22640.torrent 
Торрент: Зарегистрирован [ 2016-03-21 00:45 ] · C9C81C2BF6C1C905E2E2D5A3B89678EAEB93DB3E

Скачать .torrent

Скачать

13 KB

Статус: проверено
Скачан: 1 раз
Размер: 1.04 GB
terms.php



Быстрый ответ

Имя:

      
Для отправки сообщений необходимо включить JavaScript
Показать сообщения:    

Текущее время: 09-Дек 20:30

Часовой пояс: UTC + 3


Вы можете начинать темы
Вы можете отвечать на сообщения
Вы не можете редактировать свои сообщения
Вы не можете удалять свои сообщения
Вы не можете голосовать в опросах
Вы не можете прикреплять файлы к сообщениям
Вы можете скачивать файлы