[TR24][OF] Paul Dukas - Complete Piano Works (Olivier Chauzu, piano) - 2015 (Classical, Piano, Chamber)


Статистика раздачи [Обновить пиров]
Размер:  653 MB   |    Зарегистрирован:  8 месяцев 12 дней   |    Скачан:  3 раза
Сидов:  1  [  0 KB/s  ]   Подробная статистика пиров
 
   
 
 
 

[Цитировать]

Paul Dukas - Complete Piano Works
Формат записи/Источник записи: [TR24][OF]
Наличие водяных знаков: Нет
Год издания/переиздания диска: 2015
Жанр: Piano, Chamber
Издатель(лейбл): Calliope
Продолжительность: 01:15:42
Исполнитель:
Olivier Chauzu, piano.
Recorded at Dijon's Auditorium, France, December 2007.
Источник: 7digital
Контейнер: FLAC (*.flac)
Тип рипа: tracks
Разрядность: 24/44,1
Количество каналов: 2.0

DR-Report

foobar2000 1.3.6 / Замер динамического диапазона (DR) 1.1.1
Дата отчёта: 2015-11-26 01:47:23
--------------------------------------------------------------------------------
Анализ: Olivier Chauzu, Performer, Soloist - Paul Dukas, Composer / Olivier Chauzu : Dukas: Intégrale de la musique pour piano
--------------------------------------------------------------------------------
DR Пики RMS Продолжительность трека
--------------------------------------------------------------------------------
DR11 -10.52 дБ -25.89 дБ 0:37 01-Variations, interlude et final sur un thème de Rameau:Variations, interlude et final sur un thème de Rameau: Menuet. Thème "Le lardon"
DR10 -6.92 дБ -21.37 дБ 0:53 02-Variations, interlude et final sur un thème de Rameau:Variations, interlude et final sur un thème de Rameau: Variation I. Tendrement
DR10 -0.93 дБ -14.68 дБ 0:42 03-Variations, interlude et final sur un thème de Rameau:Variations, interlude et final sur un thème de Rameau: Variation II. Assez vif, très rythmé
DR11 -7.30 дБ -22.88 дБ 1:23 04-Variations, interlude et final sur un thème de Rameau:Variations, interlude et final sur un thème de Rameau: Variation III. Sans hâte, délicatement
DR11 -2.63 дБ -19.32 дБ 0:41 05-Variations, interlude et final sur un thème de Rameau:Variations, interlude et final sur un thème de Rameau: Variation IV. Un peu animé, avec légèreté
DR11 -12.86 дБ -29.34 дБ 1:18 06-Variations, interlude et final sur un thème de Rameau:Variations, interlude et final sur un thème de Rameau: Variation V. Lent
DR13 -5.83 дБ -24.19 дБ 1:37 07-Variations, interlude et final sur un thème de Rameau:Variations, interlude et final sur un thème de Rameau: Variation VI. Modéré
DR11 -5.03 дБ -22.87 дБ 0:30 08-Variations, interlude et final sur un thème de Rameau:Variations, interlude et final sur un thème de Rameau: Variation VII. Assez vif
DR10 -2.40 дБ -16.73 дБ 0:50 09-Variations, interlude et final sur un thème de Rameau:Variations, interlude et final sur un thème de Rameau: Variation VIII. Très modéré
DR10 -3.54 дБ -17.38 дБ 0:26 10-Variations, interlude et final sur un thème de Rameau:Variations, interlude et final sur un thème de Rameau: Variation IX. Animé
DR12 -1.64 дБ -17.36 дБ 0:53 11-Variations, interlude et final sur un thème de Rameau:Variations, interlude et final sur un thème de Rameau: Variation X. Sans lenteur, bien marqué
DR11 -2.48 дБ -20.94 дБ 2:33 12-Variations, interlude et final sur un thème de Rameau:Variations, interlude et final sur un thème de Rameau: Variation XI. Sombre, assez lent
DR11 -3.70 дБ -19.98 дБ 2:16 13-Variations, interlude et final sur un thème de Rameau:Variations, interlude et final sur un thème de Rameau: Interlude
DR14 -0.40 дБ -20.29 дБ 4:48 14-Variations, interlude et final sur un thème de Rameau:Variations, interlude et final sur un thème de Rameau: Finale. Modérément - Vif
DR13 -0.76 дБ -19.73 дБ 12:09 15-Sonate pour le piano in E-Flat Minor:Sonate pour le piano in E-Flat Minor: I. Modérément vite - Expressif
DR15 -1.69 дБ -21.98 дБ 12:07 16-Sonate pour le piano in E-Flat Minor:Sonate pour le piano in E-Flat Minor: II. Calme un peu lent - Très soutenu
DR12 -0.38 дБ -17.29 дБ 8:59 17-Sonate pour le piano in E-Flat Minor:Sonate pour le piano in E-Flat Minor: III. Vivement, avec légèreté
DR13 -0.10 дБ -16.39 дБ 14:07 18-Sonate pour le piano in E-Flat Minor:Sonate pour le piano in E-Flat Minor: IV. Très lent
DR15 -5.43 дБ -25.67 дБ 5:11 19-La plainte, au loin, du faune
DR13 -4.57 дБ -25.55 дБ 4:12 20-Prélude élégiaque sur le nom de Haydn
--------------------------------------------------------------------------------
Количество треков: 20
Реальные значения DR: DR12
Частота: 44100 Гц
Каналов: 2
Разрядность: 24
Битрейт: 1087 кбит/с
Кодек: FLAC
================================================================================

Треклист

Variations, interlude et final sur un thème de Rameau:
1. Menuet. Thème "Le lardon"
2. Variation I. Tendrement
3. Variation II. Assez vif, très rythmé
4. Variation III. Sans hâte, délicatement
5. Variation IV. Un peu animé, avec légèreté
6. Variation V. Lent
7. Variation VI. Modéré
8. Variation VII. Assez vif
9. Variation VIII. Très Modéré
10. Variation IX. Animé
11. Variation X. Sans lenteur, bien marqué
12. Variation XI. Sombre, assez lent
13. Interlude
14. Finale. Modérément - Vif
Sonate pour le piano in E-Flat Minor:
15. I. Modérément vite - Expressif
16. II. Calme un peu lent - Très soutenu
17. III. Vivement, avec légèreté
18. IV. Très lent
19. La plainte, au loin, du faune
20. Prélude élégiaque sur le nom de Haydn
[teatrix.ru].t22641.torrent 
Торрент: Зарегистрирован [ 2016-03-21 00:45 ] · 3A9EB06D55020D5F2B21ABCD227AD11B71ABF665

Скачать .torrent

Скачать

15 KB

Статус: проверено
Скачан: 3 раз
Размер: 653 MB
terms.php



Быстрый ответ

Имя:

      
Для отправки сообщений необходимо включить JavaScript
Показать сообщения:    

Текущее время: 02-Дек 21:14

Часовой пояс: UTC + 3


Вы можете начинать темы
Вы можете отвечать на сообщения
Вы не можете редактировать свои сообщения
Вы не можете удалять свои сообщения
Вы не можете голосовать в опросах
Вы не можете прикреплять файлы к сообщениям
Вы можете скачивать файлы