[TR24][OF] Wilhelm Friedemann Bach - Concertos pour clavecin et cordes (Il Convito & Maude Gratton) - 2015 (Classical, Baroque, Chamber)


Статистика раздачи [Обновить пиров]
Размер:  1.36 GB   |    Зарегистрирован:  8 месяцев 19 дней   |    Скачан:  2 раза

Полного источника не было: 26 дней

 
   
 
 
 

[Цитировать]

Wilhelm Friedemann Bach - Concertos pour clavecin et cordes
Формат записи/Источник записи: [TR24][OF]
Наличие водяных знаков: Нет
Год издания/переиздания диска: 2015
Жанр: Baroque, Chamber
Издатель(лейбл): Mirare
Продолжительность: 01:13:27
Исполнитель:
Il Convito, ensemble:
Stéphanie Paulet, violin,
Sophie Gent, violin,
Gabriel Grosbard, alto,
Emmanuel Jacques, cello,
Joseph Carver, double bass,
Maude Gratton, harpsichord, direction.
Recorded at l’Église de Xaintrailles, May 2012.
Контейнер: FLAC (*.flac)
Тип рипа: tracks
Разрядность: 24/88,2
Количество каналов: 2.0
Источник: Hi-Res Audio

DR-Report

foobar2000 1.3.8 / Dynamic Range Meter 1.1.1
log date: 2015-10-29 13:12:12
--------------------------------------------------------------------------------
Analyzed: Maude Gratton, Il Convito / Bach, W.F.: Concertos pour clavecin et cordes
--------------------------------------------------------------------------------
DR Peak RMS Duration Track
--------------------------------------------------------------------------------
DR12 -0.11 dB -16.76 dB 5:34 01-Concerto en La Mineur pour clavecin et cordes, F.45 - I. 1er mouvement
DR13 -0.44 dB -17.82 dB 3:29 02-Concerto en La Mineur pour clavecin et cordes, F.45 - II. Larghetto
DR12 -0.62 dB -17.83 dB 5:21 03-Concerto en La Mineur pour clavecin et cordes, F.45 - III. Allegro ma non tanto
DR13 -0.38 dB -15.96 dB 4:35 04-Sinfonia en Fa Majeur, F.67 - I. Vivace
DR12 -2.44 dB -20.49 dB 4:03 05-Sinfonia en Fa Majeur, F.67 - II. Andante
DR12 -0.37 dB -16.50 dB 3:33 06-Sinfonia en Fa Majeur, F.67 - III. Allegro
DR11 -2.22 dB -19.03 dB 2:24 07-Sinfonia en Fa Majeur, F.67 - IV. Menuetto I & II
DR12 -1.72 dB -18.44 dB 6:13 08-Concerto en Ré Majeur pour clavecin et cordes, F.41 - I. Allegro
DR12 -0.33 dB -19.43 dB 5:37 09-Concerto en Ré Majeur pour clavecin et cordes, F.41 - II. Andante
DR12 -0.32 dB -16.89 dB 4:26 10-Concerto en Ré Majeur pour clavecin et cordes, F.41 - III. Presto
DR11 -1.35 dB -14.72 dB 4:59 11-Allegro e forte en Ré Mineur, F.65
DR13 -0.87 dB -18.10 dB 8:29 12-Concerto en Mi Mineur pour clavecin et cordes, F. 43 - I. Allegretto
DR13 -0.29 dB -19.12 dB 9:11 13-Concerto en Mi Mineur pour clavecin et cordes, F. 43 - II. Adagio
DR13 -0.85 dB -17.87 dB 5:39 14-Concerto en Mi Mineur pour clavecin et cordes, F. 43 - III. Allegro assai
--------------------------------------------------------------------------------
Number of tracks: 14
Official DR value: DR12
Samplerate: 88200 Hz
Channels: 2
Bits per sample: 24
Bitrate: 2734 kbps
Codec: FLAC
================================================================================

Треклист

Concerto en la mineur:
1. 1er mouvement
2. II. Larghetto
Concerto en la mineur pour clavecin et cordes Falck 45:
3. III. Allegro ma non tanto
Sinfonia en fa majeur Falck 67:
4. I. Vivace
5. II. Andante
6. III. Allegro
7. IV. Menuetto I & II
Concerto en ré majeur pour clavecin et cordes Falck 41:
8. I. Allegro
9. II. Andante
10. III. Presto
Allegro e forte en ré mineur Falck 65:
11. Allegro e forte en Ré Mineur, F.65
Concerto en mi mineur pour clavecin et cordes Falck 43:
12. I. Allegretto
13. II. Adagio
14. III. Allegro assai
[teatrix.ru].t22642.torrent 
Торрент: Зарегистрирован [ 2016-03-21 00:45 ] · 4F65930231E78300C8AC6311DE517CE6DD7612F1

Скачать .torrent

Скачать

16 KB

Статус: проверено
Скачан: 2 раз
Размер: 1.36 GB
terms.php



Быстрый ответ

Имя:

      
Для отправки сообщений необходимо включить JavaScript
Показать сообщения:    

Текущее время: 09-Дек 03:06

Часовой пояс: UTC + 3


Вы можете начинать темы
Вы можете отвечать на сообщения
Вы не можете редактировать свои сообщения
Вы не можете удалять свои сообщения
Вы не можете голосовать в опросах
Вы не можете прикреплять файлы к сообщениям
Вы можете скачивать файлы