(Classical/Baroque) [LP] [24/96] Анс. Сол. Симф. Орк. М.Г.Ф , Дир. Д. Ойстрах - Сюита № 2 Си Минор, В. 1067 / Музыка На Воде (Bach/Handel - Suite No. 2 In B Minor, B. 1067/Water Music, Suite)- 1972, APE (image+.cue)


Статистика раздачи [Обновить пиров]
Размер:  831 MB   |    Зарегистрирован:  8 месяцев 18 дней   |    Скачан:  0 раз

Полного источника не было: Никогда

 
   
 
 
 

[Цитировать]

И. С. Бах / Г. Ф. Гендель - Ансамбль Солистов Симфонического Оркестра Московской Государственной Филармонии , Дирижер Давид Ойстрах
Сюита № 2 Си Минор, В. 1067 / Музыка На Воде, Соч. 1715 г.

Жанр: Classical/Baroque
Носитель: LP
Год выпуска: 1972
Лейбл: Мелодия – CM 03343—44
Страна-производитель: USSR
Аудио кодек: APE
Тип рипа: image+.cue
Формат записи: 24/192
Формат раздачи: 24/96
Продолжительность: 00:43:24
Тэги в .cue: прописаны
Источник оцифровки: автором раздачи
Код класса состояния винила: VG
Устройство воспроизведения: Электроника ЭП 017С
Головка звукоснимателя: ГЗМ – 028 (Корвет)
Предварительный усилитель: AMX - 100 (LTO®)
АЦП: Juli@
Программа-оцифровщик: Adobe Audition CS6 5.0.2.
Обработка: удаление артефактов

Трэклист:


Suite No. 2 In B Minor, B. 1067 = Сюита № 2 Си Минор, В. 1067A1 Ouverture
A2 Rondeau
A3 Sarabande
A4 Bourrée
A5 Polonaise
A6 Menuett
A7 Badinerie
Water Music, Suite = Музыка На Воде, Сюита
B1 I. Allegro (No. 3)
B2 II. Air: Andante Un Poco Allegretto (From No. 6)
B3 II. Air: Un Poco Piu Mosso (From No. 7)
B4 II. Air: A Tempo Promo (From No. 6)
B5 III. Bourrée (No. 8)
B6 IV. Hornpipe (No. 9)
B7 V. Andante (Espressivo) (No. 4)
B8 VI. Allegro (Deciso) (No. 12)

Конверт, наклейки:


Уровень записи, спектр, АЧХ:

.cue txt:

REM Genre Classical
REM DATE 1972
REM COMENT LP (Side 1), Мелодия (Апрелевский ЗГП 33СМ 03343), СССР
TITLE J. S. Bach - Orchestral Suite No.2 in B minor, BWV 1067/И. С. Бах - Сюита № 2 си минор, BWV 1067
PERFORMER А. Гофман (флейта) и Ансамбль солистов Академического симф. орк. Моск. гос. филармонии. Дир. Д. Ойстрах
FILE "01. J. S. Bach - Orchestral Suite No.2 in B minor, BWV 1067.ape" WAVE
TRACK 01 AUDIO
TITLE "01. Ouverture"
INDEX 01 00:00:00
TRACK 02 AUDIO
TITLE "02. Rondeau"
INDEX 01 03:07:74
TRACK 03 AUDIO
TITLE "03. Sarabande"
INDEX 01 09:22:23
TRACK 04 AUDIO
TITLE "04. Bourree"
INDEX 01 11:01:50
TRACK 05 AUDIO
TITLE "05. Polonaise"
INDEX 01 14:50:54
TRACK 06 AUDIO
TITLE "06. Menuett"
INDEX 01 17:06:26
TRACK 07 AUDIO
TITLE "07. Badinerie"
INDEX 01 19:59:67
FILE "02. G. F. Handel - Suite Water music.ape" WAVE
TRACK 08 AUDIO
TITLE "01. Allegro in F Major (№ 3)"
INDEX 01 00:00:00
TRACK 09 AUDIO
TITLE "02. Air in F Major: Andante un poco allegreto (from № 6). Un poco piu mosso (from № 7). A tempo primo (from № 6)"
INDEX 01 03:14:09
TRACK 10 AUDIO
TITLE "03. Bourree (№ 8). Hornpipe (№9)"
INDEX 01 10:12:47
TRACK 11 AUDIO
TITLE "04. Andante (espressivo) (№4)"
INDEX 01 11:59:68
TRACK 12 AUDIO
TITLE "05. Allegro in D Major (deciso) (№ 12)"
INDEX 01 16:26:06
[teatrix.ru].t22645.torrent 
Торрент: Зарегистрирован [ 2016-03-21 00:38 ] · 9BB0220E27FE84AC66A161B04B40F44A21890B16

Скачать .torrent

Скачать

17 KB

Статус: проверено
Скачан: 0 раз
Размер: 831 MB
terms.php



Быстрый ответ

Имя:

      
Для отправки сообщений необходимо включить JavaScript
Показать сообщения:    

Текущее время: 08-Дек 05:17

Часовой пояс: UTC + 3


Вы можете начинать темы
Вы можете отвечать на сообщения
Вы не можете редактировать свои сообщения
Вы не можете удалять свои сообщения
Вы не можете голосовать в опросах
Вы не можете прикреплять файлы к сообщениям
Вы можете скачивать файлы