(Classical, 20th century) Bruno Maderna - Complete Works for Orchestra, Vol.1 - Michael Quast, Claudia Barainsky, Frankfurt Radio Symphony Orchestra, Arturo Tamayo - 2009, FLAC (image+.cue) lossless


 

[Цитировать]

Bruno Maderna - Complete Works for Orchestra, Vol.1 - Michael Quast, Claudia Barainsky, Frankfurt Radio Symphony Orchestra, Arturo Tamayo
Жанр: Classical, 20th century
Страна-производитель диска: Germany
Год издания диска: 2009
Издатель (лейбл): NEOS Music
Номер по каталогу: NEOS 10933
Дата записи: 2005, 2006
Аудиокодек: FLAC
Тип рипа: image+.cue
Битрейт аудио: lossless
Продолжительность: 73:02
Источник: собственный рип
Наличие сканов в содержимом раздачи: да
Треклист:
Bruno Maderna (1920–1973)
[1] Composizione n. 1 (1948–1949) for orchestra
[2] Composizione n. 2 (1950) for orchestra
[3] Studi per “Il Processo” di Franz Kafka (1950)
for speaker, soprano and orchestra
[4] Improvvisazione n. 1 (1952) for orchestra
[5] Improvvisazione n. 2 (1953) for orchestra
Исполнители:
Michael Quast speaker
Claudia Barainsky soprano
hr-Sinfonieorchester/Frankfurt Radio Symphony Orchestra
Arturo Tamayo
conductor

Лог создания рипа

Exact Audio Copy V1.1 from 23. June 2015
EAC extraction logfile from 25. November 2015, 23:07
Frankfurt RSO, Arturo Tamayo / Maderna - Complete Works for Orchestra, Vol.1
Used drive : HL-DT-STDVDRAM GU70N Adapter: 1 ID: 0
Read mode : Secure
Utilize accurate stream : Yes
Defeat audio cache : Yes
Make use of C2 pointers : No
Read offset correction : 48
Overread into Lead-In and Lead-Out : No
Fill up missing offset samples with silence : Yes
Delete leading and trailing silent blocks : No
Null samples used in CRC calculations : Yes
Used interface : Native Win32 interface for Win NT & 2000
Used output format : User Defined Encoder
Selected bitrate : 128 kBit/s
Quality : High
Add ID3 tag : No
Command line compressor : C:\Program Files (x86)\Exact Audio Copy\Flac\flac.exe
Additional command line options : -V -8 -T "Date=%year%" -T "Genre=%genre%" %source%
TOC of the extracted CD
Track | Start | Length | Start sector | End sector
---------------------------------------------------------
1 | 0:00.00 | 20:42.20 | 0 | 93169
2 | 20:42.20 | 14:51.04 | 93170 | 159998
3 | 35:33.24 | 19:50.21 | 159999 | 249269
4 | 55:23.45 | 10:36.47 | 249270 | 297016
5 | 66:00.17 | 7:00.08 | 297017 | 328524
Range status and errors
Selected range
Filename C:\temp\Maderna - Complete Works for Orchestra, Vol.1\Maderna - Complete Works for Orchestra, Vol.1.wav
Peak level 100.0 %
Extraction speed 2.3 X
Range quality 100.0 %
Test CRC A5BF6943
Copy CRC A5BF6943
Copy OK
No errors occurred
AccurateRip summary
Track 1 accurately ripped (confidence 6) [E6A1E46B] (AR v2)
Track 2 accurately ripped (confidence 6) [FEC9D6F0] (AR v2)
Track 3 accurately ripped (confidence 6) [1608CE03] (AR v2)
Track 4 accurately ripped (confidence 6) [87C4B32D] (AR v2)
Track 5 accurately ripped (confidence 6) [C50E1E05] (AR v2)
All tracks accurately ripped
End of status report
==== Log checksum 6BCEA8CCC0D064C1F4217ADB4D38D158FF853CB69723713F0709C081EB6484F6 ====



Показать сообщения:    

Текущее время: 07-Дек 15:28

Часовой пояс: UTC + 3


Вы не можете начинать темы
Вы не можете отвечать на сообщения
Вы не можете редактировать свои сообщения
Вы не можете удалять свои сообщения
Вы не можете голосовать в опросах
Вы не можете прикреплять файлы к сообщениям
Вы не можете скачивать файлы