[TR24][OF] Vincenzo Bellini - Norma (Cecilia Bartoli, Sumi Jo, John Osborn, Michele Pertusi -International Chamber Vocalists, Orchestra La Scintilla, Direction Giovanni Antonini) - 2013 (opera)


Статистика раздачи [Обновить пиров]
Размер:  2.6 GB   |    Зарегистрирован:  8 месяцев 19 дней   |    Скачан:  1 раз

Полного источника не было: 27 дней

 
   
 
 
 

[Цитировать]

Vincenzo Bellini - Norma - Cecilia Bartoli, Sumi Jo, John Osborn, Michele Pertusi -International Chamber Vocalists, Orchestra La Scintilla, Direction Giovanni Antonini
Формат записи/Источник записи: [TR24][OF]
Наличие водяных знаков: Нет
Год издания/переиздания диска: 2013
Жанр: opera
Издатель(лейбл): Decca
Продолжительность: 2 часа 22 минуты
Наличие сканов в содержимом раздачи: Нет

Треклист

01. Sinfonia
02. Act 1, Scene 1: Introduzione - "Ite sul colle, o Druidi"
03. Act 1, Scene 2: "Svanir le voci!"
04. Act 1, Scene 2: "Meco all’altar di Venere "
05. Act 1, Scene 2: "Me protegge, me difende "
06. Act 1, Scene 3: "Norma viene"
07. Act 1, Scene 4: "Sediziose voci, voci di guerra"
08. Act 1, Scene 4: "Casta Diva"
09. Act 1, Scene 4: "Fine al rito"
10. Act 1, Scene 4: "Ah! bello a me ritorna"
11. Act 1, Scene 5: "Sgombra è la sacra selva, compiuto il rito"
12. Act 1, Scene 5: "Deh! proteggimi, o Dio!"
13. Act 1, Scene 6: "Eccola! va, mi lascia, ragion non odo"
14. Act 1, Scene 6: "Va, crudele, al Dio spietato"
15. Act 1, Scene 7: "Vanne, e li cela entrambi"
16. Act 1, Scene 8: "Adalgisa!"
17. Act 1, Scene 8: "Oh! rimembranza!"
18. Act 1, Scene 8: "Ah! sì, fa core, e abbracciami"
19. Act 1, Scene 8: "Ma di’... l’amato giovane quale fra noi si noma?"..."Oh non tremare "
20. Act 1, Scene 9: "Oh! di qual sei tu vittima ".."Oh! qual traspare orribile".."Norma! de’ tuoi rimproveri"
21. Act 1, Scene 9: "Perfido! - Or basti...Vanne, sì: mi lascia, indegno "
22. Act 2, Scene 1: Scena – Introduzione - "Dormono entrambi"
23. Act 2, Scene 3: "Mi chiami, o Norma!"
24. Act 2, Scene 3: "Deh! con te, con te li prendi"
25. Act 2, Scene 3: "Mira, o Norma"
26. Act 2, Scene 3: "Si, fino all’ore estreme"
27. Act 2, Scene 4: "Non parti?"
28. Act 2, Scene 5: "Guerrieri! a voi venirne"
29. Act 2, Scene 5: "Ah! del Tebro al giogo indegno fremo io pure"
30. Act 2, Scene 6: "Ei tornerà"
31. Act 2, Scene 6: "Squilla il bronzo del Dio!"
32. Act 2, Scene 7: "Guerra, guerra!"
33. Act 2, Scene 7: "Né compi il rito, o Norma?"
34. Act 2, Scene 10: "In mia man alfin tu sei".."Già mi pasco ne’ tuoi sguardi"
35. Act 2, Scene 10: "Dammi quel ferro"
36. Act 2, Scene 11: "Qual cor tradisti, qual cor perdesti"
37. Act 2, Scene 11: "Norma! deh! Norma, scolpati!"
38. Act 2, Scene 11: "Deh non volerli vittime"
Контейнер: FLAC (*.flac)
Тип рипа: tracks
Разрядность: 24/96
Формат:flac
Количество каналов: 2.0

Лог проверки качества

foobar2000 1.2.2 / Замер динамического диапазона (DR) 1.1.1
Дата отчёта: 2015-11-28 10:23:03
--------------------------------------------------------------------------------
Анализ: Cecilia Bartoli, John Osborn, Sumi Jo, Michele Pertusi, Orchestra La Scintilla, Giovanni Antonini / Bellini: Norma (1)
Cecilia Bartoli/International Chamber Vocalists/Orchestra La Scintilla / Bellini: Norma (2-5)
Cecilia Bartoli/John Osborn/Michele Pertusi/International Chamber Vocalists/Orchestra La Scintilla / Bellini: Norma (6)
Cecilia Bartoli/John Osborn/Michele Pertusi/Orchestra La Scintilla / Bellini: Norma (7)
Cecilia Bartoli/John Osborn/Orchestra La Scintilla / Bellini: Norma (8)
Cecilia Bartoli/John Osborn/Sumi Jo/Orchestra La Scintilla / Bellini: Norma (9-10)
Cecilia Bartoli/Liliana Nikiteanu/Orchestra La Scintilla / Bellini: Norma (11-13)
Cecilia Bartoli/Michele Pertusi/International Chamber Vocalists/Orchestra La Scintilla / Bellini: Norma (14)
Cecilia Bartoli/Sumi Jo/Orchestra La Scintilla / Bellini: Norma (15-20)
International Chamber Vocalists/Orchestra La Scintilla / Bellini: Norma (21-23)
John Osborn/Cecilia Bartoli/International Chamber Vocalists/Orchestra La Scintilla / Bellini: Norma (24)
John Osborn/Reinaldo Macias/International Chamber Vocalists/Orchestra La Scintilla / Bellini: Norma (25-26)
John Osborn/Reinaldo Macias/Orchestra La Scintilla / Bellini: Norma (27)
John Osborn/Sumi Jo/Orchestra La Scintilla / Bellini: Norma (28-29)
Michele Pertusi/Cecilia Bartoli/John Osborn/International Chamber Vocalists/Orchestra La Scintilla / Bellini: Norma (30)
Michele Pertusi/Cecilia Bartoli/Liliana Nikiteanu/John Osborn/International Chamber Vocalists/Orchestra La Scintilla / Bellini: Norma (31)
Michele Pertusi/International Chamber Vocalists/Orchestra La Scintilla / Bellini: Norma (32-33)
Orchestra La Scintilla / Bellini: Norma (34)
Sumi Jo/Cecilia Bartoli/Orchestra La Scintilla / Bellini: Norma (35-36)
Sumi Jo/Orchestra La Scintilla / Bellini: Norma (37-38)
--------------------------------------------------------------------------------
DR Пики RMS Продолжительность трека
--------------------------------------------------------------------------------
DR12 -2.44 дБ -23.46 дБ 2:14 ?-Norma - Critical Edition by Maurizio Biondi and Riccardo Minasi: Act 1, Scene 5: 'Deh! proteggimi, o Dio!'
DR13 -0.39 дБ -18.44 дБ 2:57 ?-Norma - Critical Edition by Maurizio Biondi and Riccardo Minasi: Act 1, Scene 4: 'Sediziose voci, voci di guerra'
DR13 -0.08 дБ -19.98 дБ 6:30 ?-Norma - Critical Edition by Maurizio Biondi and Riccardo Minasi: Act 1, Scene 4: 'Casta Diva'
DR12 -1.45 дБ -19.81 дБ 1:27 ?-Norma - Critical Edition by Maurizio Biondi and Riccardo Minasi: Act 1, Scene 4: 'Fine al rito'
DR9 -0.02 дБ -14.68 дБ 1:39 ?-Norma - Critical Edition by Maurizio Biondi and Riccardo Minasi: Act 2, Scene 7: 'Guerra, guerra!'
DR11 -0.02 дБ -16.98 дБ 5:01 ?-Norma - Critical Edition by Maurizio Biondi and Riccardo Minasi: Act 2, Scene 11: 'Deh non volerli vittime'
DR13 -3.04 дБ -21.02 дБ 5:37 ?-Norma - Critical Edition by Maurizio Biondi and Riccardo Minasi: Act 2, Scene 11: 'Qual cor tradisti, qual cor perdesti'
DR12 -0.18 дБ -18.39 дБ 6:11 ?-Norma - Critical Edition by Maurizio Biondi and Riccardo Minasi: Act 2, Scene 10: 'In mia man alfin tu sei'..'Già mi pasco ne’ tuoi sguardi'
DR14 -1.30 дБ -19.55 дБ 4:16 ?-Norma - Critical Edition by Maurizio Biondi and Riccardo Minasi: Act 1, Scene 9: 'Oh! di qual sei tu vittima '..'Oh! qual traspare orribile'..'Norma! de’ tuoi rimproveri'
DR11 0.00 дБ -16.34 дБ 4:54 ?-Norma - Critical Edition by Maurizio Biondi and Riccardo Minasi: Act 1, Scene 9: 'Perfido! - Or basti...Vanne, sì: mi lascia, indegno '
DR13 -0.40 дБ -19.82 дБ 3:51 ?-Norma - Critical Edition by Maurizio Biondi and Riccardo Minasi: Act 1, Scene 7: 'Vanne, e li cela entrambi'
DR16 -0.50 дБ -22.75 дБ 8:40 ?-Norma - Critical Edition by Maurizio Biondi and Riccardo Minasi: Act 2, Scene 1: Scena – Introduzione - 'Dormono entrambi'
DR14 -1.96 дБ -22.47 дБ 3:48 ?-Norma - Critical Edition by Maurizio Biondi and Riccardo Minasi: Act 2, Scene 6: 'Ei tornerà'
DR10 -0.49 дБ -14.44 дБ 3:25 ?-Norma - Critical Edition by Maurizio Biondi and Riccardo Minasi: Act 1, Scene 3: 'Norma viene'
DR15 -1.76 дБ -24.83 дБ 3:01 ?-Norma - Critical Edition by Maurizio Biondi and Riccardo Minasi: Act 1, Scene 8: 'Adalgisa!'
DR14 -1.81 дБ -21.12 дБ 3:34 ?-Norma - Critical Edition by Maurizio Biondi and Riccardo Minasi: Act 1, Scene 8: 'Oh! rimembranza!'
DR12 -2.11 дБ -18.27 дБ 3:25 ?-Norma - Critical Edition by Maurizio Biondi and Riccardo Minasi: Act 1, Scene 8: 'Ah! sì, fa core, e abbracciami'
DR11 -0.16 дБ -17.59 дБ 2:47 ?-Norma - Critical Edition by Maurizio Biondi and Riccardo Minasi: Act 1, Scene 8: 'Ma di’... l’amato giovane quale fra noi si noma?'...'Oh non tremare '
DR13 -1.82 дБ -18.68 дБ 3:36 ?-Norma - Critical Edition by Maurizio Biondi and Riccardo Minasi: Act 2, Scene 3: 'Deh! con te, con te li prendi'
DR11 -0.36 дБ -15.07 дБ 1:47 ?-Norma - Critical Edition by Maurizio Biondi and Riccardo Minasi: Act 2, Scene 3: 'Si, fino all’ore estreme'
DR11 -0.61 дБ -15.37 дБ 2:37 ?-Norma - Critical Edition by Maurizio Biondi and Riccardo Minasi: Act 1, Scene 2: 'Me protegge, me difende '
DR13 -1.63 дБ -21.79 дБ 4:19 ?-Norma - Critical Edition by Maurizio Biondi and Riccardo Minasi: Act 2, Scene 4: 'Non parti?'
DR10 -0.01 дБ -13.75 дБ 1:33 ?-Norma - Critical Edition by Maurizio Biondi and Riccardo Minasi: Act 2, Scene 6: 'Squilla il bronzo del Dio!'
DR12 -0.05 дБ -17.81 дБ 2:47 ?-Norma - Critical Edition by Maurizio Biondi and Riccardo Minasi: Act 2, Scene 10: 'Dammi quel ferro'
DR14 -0.90 дБ -21.93 дБ 2:36 ?-Norma - Critical Edition by Maurizio Biondi and Riccardo Minasi: Act 1, Scene 2: 'Svanir le voci!'
DR12 -1.80 дБ -18.89 дБ 3:56 ?-Norma - Critical Edition by Maurizio Biondi and Riccardo Minasi: Act 1, Scene 2: 'Meco all’altar di Venere '
DR12 -0.40 дБ -17.50 дБ 7:59 ?-Norma - Critical Edition by Maurizio Biondi and Riccardo Minasi: Act 1, Scene 1: Introduzione - 'Ite sul colle, o Druidi'
DR11 -2.42 дБ -22.63 дБ 1:28 ?-Norma - Critical Edition by Maurizio Biondi and Riccardo Minasi: Act 1, Scene 6: 'Eccola! va, mi lascia, ragion non odo'
DR12 -0.11 дБ -18.98 дБ 8:26 ?-Norma - Critical Edition by Maurizio Biondi and Riccardo Minasi: Act 1, Scene 6: 'Va, crudele, al Dio spietato'
DR13 -0.40 дБ -19.25 дБ 2:05 ?-Norma - Critical Edition by Maurizio Biondi and Riccardo Minasi: Act 2, Scene 11: 'Norma! deh! Norma, scolpati!'
DR14 -0.35 дБ -19.92 дБ 3:10 ?-Norma - Critical Edition by Maurizio Biondi and Riccardo Minasi: Act 2, Scene 7: 'Né compi il rito, o Norma?'
DR12 -1.10 дБ -18.08 дБ 1:39 ?-Norma - Critical Edition by Maurizio Biondi and Riccardo Minasi: Act 2, Scene 5: 'Guerrieri! a voi venirne'
DR12 -1.36 дБ -20.65 дБ 2:57 ?-Norma - Critical Edition by Maurizio Biondi and Riccardo Minasi: Act 2, Scene 5: 'Ah! del Tebro al giogo indegno fremo io pure'
DR12 -0.23 дБ -17.78 дБ 5:13 ?-Norma - Critical Edition by Maurizio Biondi and Riccardo Minasi: Sinfonia
DR12 -1.89 дБ -20.75 дБ 2:12 ?-Norma - Critical Edition by Maurizio Biondi and Riccardo Minasi: Act 2, Scene 3: 'Mi chiami, o Norma!'
DR14 -2.39 дБ -21.39 дБ 4:33 ?-Norma - Critical Edition by Maurizio Biondi and Riccardo Minasi: Act 2, Scene 3: 'Mira, o Norma'
DR12 -0.37 дБ -17.39 дБ 3:54 ?-Norma - Critical Edition by Maurizio Biondi and Riccardo Minasi: Act 1, Scene 4: 'Ah! bello a me ritorna'
DR12 -8.68 дБ -28.01 дБ 3:01 ?-Norma - Critical Edition by Maurizio Biondi and Riccardo Minasi: Act 1, Scene 5: 'Sgombra è la sacra selva, compiuto il rito'
--------------------------------------------------------------------------------
Количество треков: 38
Реальные значения DR: DR12
Частота: 96000 Гц
Каналов: 2
Разрядность: 24
Битрейт: 2398 кбит/с
Кодек: FLAC
================================================================================
Доп. информация:
Includes PDF booklet
Буклет в формате PDF
Источник (релизер): http://www.qobuz.com/gb-en/album/vincenzo-bellini-norma-cecilia-bartoli-sumi-jo-j...ni/0002894785493
Оркестр: Orchestra La Scintilla, International Chamber Vocalists
Композитор: Vincenzo Bellini
Дирижер: Giovanni Antonini

Состав

Vincenzo Bellini (1801-1835)
Norma, tragédie lyrique en deux actes (1831)
Livret de Felice Romani d'après la tragédie de Alexandre Soumet
Première représentation au Théâtre de la Scala de Milan le 26 décember 1831
(Edition de Maurizio Bondi & Riccardo Minasi)
Cecilia Bartoli (Norma)
John Osborn (Pollione)
Michele Pertusi (Oroverso)
Sumi Jo (Adalgisa)
Liliana Nikiteanu (Clotilde)
Reinaldo Macias (Flavio)
International Chamber Vocalists
Orchestra La Scintilla
Direction Giovanni Antonini
[teatrix.ru].t22647.torrent 
Торрент: Зарегистрирован [ 2016-03-21 00:47 ] · 491F79FAEE6B6174AA0E5FB8D95BA713B2B9D728

Скачать .torrent

Скачать

17 KB

Статус: проверено
Скачан: 1 раз
Размер: 2.6 GB
terms.php



Быстрый ответ

Имя:

      
Для отправки сообщений необходимо включить JavaScript
Показать сообщения:    

Текущее время: 09-Дек 16:31

Часовой пояс: UTC + 3


Вы можете начинать темы
Вы можете отвечать на сообщения
Вы не можете редактировать свои сообщения
Вы не можете удалять свои сообщения
Вы не можете голосовать в опросах
Вы не можете прикреплять файлы к сообщениям
Вы можете скачивать файлы