(opera) Vincenzo Bellini - Norma (Montserrat Caballe, Fiorenza Cossotto, Placido Domingo, Ruggero Raimondi - Carlo Felice Cillario - 1972) WEB - 2015, FLAC (tracks) lossless


 

[Цитировать]

Vincenzo Bellini - Norma - Montserrat Caballe, Fiorenza Cossotto, Placido Domingo, Ruggero Raimondi - Carlo Felice Cillario - 1972
Жанр: opera
Страна-производитель диска: EU
Год издания диска: 2015
Издатель (лейбл): RCA Red Seal
Дата записи: 1972
Аудиокодек: FLAC
Тип рипа: tracks
Битрейт аудио: lossless
Продолжительность: 02:36:02
Источник: сайт
сайт-источник/ник/другое: http://www.qobuz.com/fr-fr/album/bellini-norma-remastered-caballe-cossotto-doming...io/0886445059854
Наличие сканов в содержимом раздачи: нет

Треклист

01 Prelude 00:06:12
02 Act I: Ite sul colle, o Druidi 00:08:32
03 Act I: Svanir le voci 00:02:57
04 Act I: Meco all'altar di Venere 00:02:45
05 Act I: Odi? I suoi riti a compiere Norma 00:04:20
06 Act I: Norma viene 00:04:17
07 Act I: Sediziose voci, voci di guerra 00:03:42
08 Act I: Casta diva 00:06:43
09 Act I: Fine al rito 00:01:26
10 Act I: Ah! Bello a me ritorna 00:04:30
11 Act I: Sgombra è la sacra selva 00:06:19
12 Act I: Eccola! Va, mi lascia 00:01:38
13 Act I: Va, crudele, al dio spietato 00:01:48
14 Act I: E tu pure, ah! Tu non sai 00:07:13
15 Act I: Vanne, e li cela entrambi 00:04:27
16 Act I: Adalgisa! - Alma, costanza! 00:11:01
17 Act I: Ma di', l'amato giovane 00:03:05
18 Act I: Oh! Di qual sei tu vittima 00:08:27
19 Act I: Dormono entrambi 00:08:54
20 Act I: Me chiami, o Norma? 00:06:38
21 Act I: Mira, o Norma 00:07:57
22 Act II: Non partì? 00:04:25
23 Act II: Guerrieri! A voi venirne 00:01:34
24 Act II: Ah! Del Tebro al giogo indegno 00:02:30
25 Act II: Ei tornerà, sì 00:05:24
26 Act II: Guerra, guerra! 00:01:06
27 Act II: Né compi il rito, o Norma? 00:03:35
28 Act II: Il mia man alfin tu sei 00:08:16
29 Act II: All'ira rostra nuova vittima io svelo 00:10:29
30 Act II: Deh! Non volerli vittime 00:05:24
Исполнители:
Conductor Carlo Felice Cillario - 1972(STU)
Orchestra - London Philharmonic Orchestra
Chorus - Ambrosian Opera Chorus
Norma - Montserrat Caballé
Adalgisa - Fiorenza Cossotto
Pollione - Plácido Domingo
Oroveso - Ruggero Raimondi
Clotilde - Elizabeth Bainbridge
Flavio - Kenneth Collins

Лог проверки качества

foobar2000 1.2.2 / Замер динамического диапазона (DR) 1.1.1
Дата отчёта: 2015-11-28 11:05:32
--------------------------------------------------------------------------------
Анализ: Felice Romani/Fiorenza Cossotto/Lewis Layton / Bellini: Norma (1)
Felice Romani/Fiorenza Cossotto/Plácido Domingo/Lewis Layton / Bellini: Norma (2-3)
Felice Romani/Lewis Layton / Bellini: Norma (4-5)
Felice Romani/Montserrat Caballé/Elizabeth Bainbridge/Lewis Layton / Bellini: Norma (6-7)
Felice Romani/Montserrat Caballé/Fiorenza Cossotto/Lewis Layton / Bellini: Norma (8-10)
Felice Romani/Montserrat Caballé/Fiorenza Cossotto/Plácido Domingo/Lewis Layton / Bellini: Norma (11-12)
Felice Romani/Montserrat Caballé/Lewis Layton / Bellini: Norma (13-15)
Felice Romani/Montserrat Caballé/Plácido Domingo/Lewis Layton / Bellini: Norma (16)
Felice Romani/Montserrat Caballé/Plácido Domingo/Ruggero Raimondi/Elizabeth Bainbridge/Lewis Layton / Bellini: Norma (17)
Felice Romani/Montserrat Caballé/Plácido Domingo/Ruggero Raimondi/Lewis Layton / Bellini: Norma (18-19)
Felice Romani/Montserrat Caballé/Ruggero Raimondi/Elizabeth Bainbridge/Lewis Layton / Bellini: Norma (20)
Felice Romani/Montserrat Caballé/Ruggero Raimondi/Lewis Layton / Bellini: Norma (21-22)
Felice Romani/Plácido Domingo/Kenneth Collins/Lewis Layton / Bellini: Norma (23-24)
Felice Romani/Plácido Domingo/Lewis Layton / Bellini: Norma (25-26)
Felice Romani/Ruggero Raimondi/Lewis Layton / Bellini: Norma (27-29)
Lewis Layton / Bellini: Norma (30)
--------------------------------------------------------------------------------
DR Пики RMS Продолжительность трека
--------------------------------------------------------------------------------
DR13 -6.48 дБ -27.65 дБ 6:19 ?-Norma: Act I: Sgombra è la sacra selva
DR12 -4.67 дБ -22.47 дБ 1:38 ?-Norma: Act I: Eccola! Va, mi lascia
DR14 -0.55 дБ -20.17 дБ 7:14 ?-Norma: Act I: E tu pure, ah! Tu non sai
DR12 -0.78 дБ -17.69 дБ 4:18 ?-Norma: Act I: Norma viene
DR15 -3.19 дБ -24.62 дБ 4:26 ?-Norma: Act II: Non partì?
DR15 -2.48 дБ -24.34 дБ 4:27 ?-Norma: Act I: Vanne, e li cela entrambi
DR17 -1.41 дБ -25.46 дБ 8:54 ?-Norma: Act I: Dormono entrambi
DR15 -1.21 дБ -23.11 дБ 11:02 ?-Norma: Act I: Adalgisa! - Alma, costanza!
DR13 -1.42 дБ -20.68 дБ 6:38 ?-Norma: Act I: Me chiami, o Norma?
DR14 -1.94 дБ -21.46 дБ 7:58 ?-Norma: Act I: Mira, o Norma
DR14 -0.06 дБ -19.61 дБ 3:06 ?-Norma: Act I: Ma di', l'amato giovane
DR13 -0.26 дБ -17.76 дБ 8:27 ?-Norma: Act I: Oh! Di qual sei tu vittima
DR14 -2.67 дБ -23.88 дБ 6:44 ?-Norma: Act I: Casta diva
DR12 -0.67 дБ -21.17 дБ 1:55 ?-Norma: Act I: Fine al rito
DR13 -1.20 дБ -19.31 дБ 4:30 ?-Norma: Act I: Ah! Bello a me ritorna
DR15 -0.40 дБ -21.75 дБ 8:17 ?-Norma: Act II: Il mia man alfin tu sei
DR14 -2.50 дБ -24.04 дБ 3:36 ?-Norma: Act II: Né compi il rito, o Norma?
DR15 -0.63 дБ -23.95 дБ 10:29 ?-Norma: Act II: All'ira rostra nuova vittima io svelo
DR12 -0.17 дБ -18.16 дБ 5:24 ?-Norma: Act II: Deh! Non volerli vittime
DR14 -0.42 дБ -21.03 дБ 5:24 ?-Norma: Act II: Ei tornerà, sì
DR14 -2.76 дБ -22.46 дБ 3:43 ?-Norma: Act I: Sediziose voci, voci di guerra
DR12 -0.26 дБ -13.90 дБ 1:07 ?-Norma: Act II: Guerra, guerra!
DR14 -6.07 дБ -27.32 дБ 2:57 ?-Norma: Act I: Svanir le voci
DR13 -2.44 дБ -19.70 дБ 4:21 ?-Norma: Act I: Odi? I suoi riti a compiere Norma
DR12 -4.36 дБ -22.74 дБ 2:45 ?-Norma: Act I: Meco all'altar di Venere
DR14 -1.31 дБ -21.02 дБ 1:48 ?-Norma: Act I: Va, crudele, al dio spietato
DR14 -0.06 дБ -19.91 дБ 8:33 ?-Norma: Act I: Ite sul colle, o Druidi
DR14 -2.25 дБ -21.36 дБ 1:34 ?-Norma: Act II: Guerrieri! A voi venirne
DR13 -2.65 дБ -23.13 дБ 2:31 ?-Norma: Act II: Ah! Del Tebro al giogo indegno
DR14 -0.69 дБ -20.07 дБ 6:12 ?-Norma: Prelude
--------------------------------------------------------------------------------
Количество треков: 30
Реальные значения DR: DR14
Частота: 44100 Гц
Каналов: 2
Разрядность: 16
Битрейт: 671 кбит/с
Кодек: FLAC
================================================================================



Показать сообщения:    

Текущее время: 10-Дек 02:14

Часовой пояс: UTC + 3


Вы не можете начинать темы
Вы не можете отвечать на сообщения
Вы не можете редактировать свои сообщения
Вы не можете удалять свои сообщения
Вы не можете голосовать в опросах
Вы не можете прикреплять файлы к сообщениям
Вы не можете скачивать файлы