(Classical) Wagner - Opera Hightlights (Vernon Handley, The Royal Philharmonic Orchestra) - 1994, FLAC (image+.cue) lossless


 

[Цитировать]

The Royal Philharmonic Orchestra - Wagner
Жанр: Classical
Страна-производитель диска: UK
Год издания диска: 1994
Издатель (лейбл): Tring international PLC
Номер по каталогу: TRP008
Дата записи: October 1993
Аудиокодек: FLAC
Тип рипа: image+.cue
Битрейт аудио: lossless
Продолжительность: 01:04:52
Источник: собственный рип
Наличие сканов в содержимом раздачи: да
Треклист:
01 "The Ride of the Valkyries"
02 "Overture: Rienzi"
03 "Introduction to Act III: Lohengrin"
04 "Siegfried Idyll"
05 "Overture: The Flying Dutchman"
06"Overture: Tannhauser"
Исполнители:
Royal Philharmonic Orchestra
Conductor: Vernon Handley

Лог создания рипа

Exact Audio Copy V1.0 beta 6 from 9. April 2015
EAC extraction logfile from 24. November 2015, 20:53
Royal Philharmonic Orchestra / Wagner
Used drive : hp DVDRW SU208FB Adapter: 1 ID: 0
Read mode : Secure
Utilize accurate stream : Yes
Defeat audio cache : Yes
Make use of C2 pointers : No
Read offset correction : 6
Overread into Lead-In and Lead-Out : No
Fill up missing offset samples with silence : Yes
Delete leading and trailing silent blocks : No
Null samples used in CRC calculations : Yes
Used interface : Native Win32 interface for Win NT & 2000
Used output format : Internal WAV Routines
Sample format : 44.100 Hz; 16 Bit; Stereo
TOC of the extracted CD
Track | Start | Length | Start sector | End sector
---------------------------------------------------------
1 | 0:00.32 | 5:42.53 | 32 | 25734
2 | 5:43.10 | 11:53.05 | 25735 | 79214
3 | 17:36.15 | 3:35.62 | 79215 | 95401
4 | 21:12.02 | 18:19.68 | 95402 | 177894
5 | 39:31.70 | 10:55.65 | 177895 | 227084
6 | 50:27.60 | 14:24.47 | 227085 | 291931
Range status and errors
Selected range
Filename C:\Royal Philharmonic Orchestra - Wagner.wav
Peak level 97.8 %
Extraction speed 3.8 X
Range quality 100.0 %
Test CRC 9C5D64AE
Copy CRC 9C5D64AE
Copy OK
No errors occurred
AccurateRip summary
Track 1 accurately ripped (confidence 7) [35DF3DC8] (AR v2)
Track 2 accurately ripped (confidence 7) [BF6ABEB2] (AR v2)
Track 3 accurately ripped (confidence 7) [7291B14D] (AR v2)
Track 4 accurately ripped (confidence 7) [C9D60940] (AR v2)
Track 5 accurately ripped (confidence 7) [FAD38DEB] (AR v2)
Track 6 accurately ripped (confidence 7) [98D530FB] (AR v2)
All tracks accurately ripped
End of status report
==== Log checksum EC4FD110953D99C60BC7A109E4D68A05A4FD613E6565A3A571F38EF78C08D5B8 ====

Содержание индексной карты (.CUE)

REM GENRE Classical
REM DATE 1994
REM DISCID 470F3406
REM COMMENT "ExactAudioCopy v1.0b6"
PERFORMER "Royal Philharmonic Orchestra"
TITLE "Wagner"
FILE "Royal Philharmonic Orchestra - Wagner.flac" WAVE
TRACK 01 AUDIO
TITLE "The Ride of the Valkyries"
PERFORMER "Royal Philharmonic Orchestra"
INDEX 00 00:00:00
INDEX 01 00:00:32
TRACK 02 AUDIO
TITLE "Overture: Rienzi"
PERFORMER "Royal Philharmonic Orchestra"
INDEX 00 05:40:10
INDEX 01 05:43:10
TRACK 03 AUDIO
TITLE "Introduction to Act III: Lohengrin"
PERFORMER "Royal Philharmonic Orchestra"
INDEX 00 17:33:15
INDEX 01 17:36:15
TRACK 04 AUDIO
TITLE "Siegfried Idyll"
PERFORMER "Royal Philharmonic Orchestra"
INDEX 00 21:09:02
INDEX 01 21:12:02
TRACK 05 AUDIO
TITLE "Overture: The Flying Dutchman"
PERFORMER "Royal Philharmonic Orchestra"
INDEX 00 39:28:70
INDEX 01 39:31:70
TRACK 06 AUDIO
TITLE "Overture: Tannhauser"
PERFORMER "Royal Philharmonic Orchestra"
INDEX 00 50:24:60
INDEX 01 50:27:60



Показать сообщения:    

Текущее время: 05-Дек 01:18

Часовой пояс: UTC + 3


Вы не можете начинать темы
Вы не можете отвечать на сообщения
Вы не можете редактировать свои сообщения
Вы не можете удалять свои сообщения
Вы не можете голосовать в опросах
Вы не можете прикреплять файлы к сообщениям
Вы не можете скачивать файлы