(Classical) Royal Rhymes and Rounds - The King's Singers - 2012, FLAC (image+.cue) lossless


 

[Цитировать]

Royal Rhymes and Rounds - The King's Singers
Жанр: Classical
Страна-производитель диска: UK
Год издания диска: 2012
Издатель (лейбл): Signum Records
Номер по каталогу: SIGCD307
Дата записи: 2011
Аудиокодек: FLAC
Тип рипа: image+.cue
Битрейт аудио: lossless
Продолжительность: 65:50
Источник: собственный рип
Наличие сканов в содержимом раздачи: да
Треклист:
Henry VIII
[1] King Henry VIII: Pastime with good companie
[2] William Cornysh: Ah Robin, gentle Robin
[3] William Cornysh: Blow thy horn, hunter
[4] King Henry VIII: It is to me a right great joy
[5] Anonymous: Hey, trolly lolly lo!
Elizabeth I
[6] Ellis Gibbons: Long Live fair Oriana
[7] Orlando Gibbons: The Silver Swan (Round)
[8] Orlando Gibbons: The Silver Swan
[9] John Hilton: Fair Orianna, beauty's Queen
[10] John Mundy: Lightly she whipped o'er the dales
[11] John Dowland: Flow, O my tears
[12] John Bennet: Weep, O mine eyes
[13] Thomas Weelkes: As Vesta was from Latmos hill descending
Victoria
[14] Sir Walter Parratt: The Triumph of Victoria
[15] Sir Hubert Parry: Who can dwell with greatness?
[16] Sir Edward Elgar: To her beneath whose steadfast star
Elizabeth II
[17]-[22] Benjamin Britten: Choral Dances from 'Gloriana'
[23] Paul Drayton: A Rough Guide to the Royal Succession
Исполнители:
The King's Singers
David Hurley countertenor
Timothy Wayne-Wright countertenor
Paul Phoenix tenor
Christopher Bruerton baritone (tracks 7 and 23)
Philip Lawson baritone
Christopher Gabbitas baritone
Jonathan Howard bass

Лог создания рипа

Exact Audio Copy V1.0 beta 3 from 29. August 2011
EAC extraction logfile from 9. April 2015, 2:00
King's Singers / Royal Rhymes and Rounds
Used drive : HL-DT-STDVDRAM GU70N Adapter: 0 ID: 0
Read mode : Secure
Utilize accurate stream : Yes
Defeat audio cache : Yes
Make use of C2 pointers : No
Read offset correction : 48
Overread into Lead-In and Lead-Out : No
Fill up missing offset samples with silence : Yes
Delete leading and trailing silent blocks : No
Null samples used in CRC calculations : Yes
Used interface : Native Win32 interface for Win NT & 2000
Used output format : User Defined Encoder
Selected bitrate : 128 kBit/s
Quality : High
Add ID3 tag : No
Command line compressor : C:\Program Files (x86)\Exact Audio Copy\Flac\flac.exe
Additional command line options : -V -8 -T "Date=%year%" -T "Genre=%genre%" %source%
TOC of the extracted CD
Track | Start | Length | Start sector | End sector
---------------------------------------------------------
1 | 0:00.00 | 1:52.48 | 0 | 8447
2 | 1:52.48 | 2:25.58 | 8448 | 19380
3 | 4:18.31 | 2:23.08 | 19381 | 30113
4 | 6:41.39 | 1:33.39 | 30114 | 37127
5 | 8:15.03 | 3:56.34 | 37128 | 54861
6 | 12:11.37 | 2:39.11 | 54862 | 66797
7 | 14:50.48 | 1:59.64 | 66798 | 75786
8 | 16:50.37 | 1:46.20 | 75787 | 83756
9 | 18:36.57 | 2:21.29 | 83757 | 94360
10 | 20:58.11 | 3:10.52 | 94361 | 108662
11 | 24:08.63 | 1:36.42 | 108663 | 115904
12 | 25:45.30 | 2:44.27 | 115905 | 128231
13 | 28:29.57 | 3:18.73 | 128232 | 143154
14 | 31:48.55 | 2:33.25 | 143155 | 154654
15 | 34:22.05 | 3:07.39 | 154655 | 168718
16 | 37:29.44 | 4:51.36 | 168719 | 190579
17 | 42:21.05 | 1:49.41 | 190580 | 198795
18 | 44:10.46 | 2:26.06 | 198796 | 209751
19 | 46:36.52 | 1:45.46 | 209752 | 217672
20 | 48:22.23 | 1:17.10 | 217673 | 223457
21 | 49:39.33 | 1:00.35 | 223458 | 227992
22 | 50:39.68 | 2:20.13 | 227993 | 238505
23 | 53:00.06 | 12:48.02 | 238506 | 296107
Range status and errors
Selected range
Filename C:\temp\Royal Rhymes and Rounds - King's Singers\Royal Rhymes and Rounds.wav
Peak level 91.8 %
Extraction speed 2.1 X
Range quality 100.0 %
Test CRC F05BA8BD
Copy CRC F05BA8BD
Copy OK
No errors occurred
AccurateRip summary
Track 1 accurately ripped (confidence 1) [6DF1FAD7] (AR v1)
Track 2 not present in database
Track 3 not present in database
Track 4 not present in database
Track 5 not present in database
Track 6 not present in database
Track 7 not present in database
Track 8 not present in database
Track 9 not present in database
Track 10 not present in database
Track 11 not present in database
Track 12 not present in database
Track 13 not present in database
Track 14 not present in database
Track 15 not present in database
Track 16 not present in database
Track 17 not present in database
Track 18 not present in database
Track 19 not present in database
Track 20 not present in database
Track 21 not present in database
Track 22 not present in database
Track 23 accurately ripped (confidence 1) [8FE5DD88] (AR v2)
2 track(s) accurately ripped
21 track(s) not present in the AccurateRip database
Some tracks could not be verified as accurate
End of status report
==== Log checksum CF967FF28A32056ACDF509080CF5C99A4FB8FF70B7EAE02B91FF92F60AF18EDF ====



Показать сообщения:    

Текущее время: 07-Дек 11:40

Часовой пояс: UTC + 3


Вы не можете начинать темы
Вы не можете отвечать на сообщения
Вы не можете редактировать свои сообщения
Вы не можете удалять свои сообщения
Вы не можете голосовать в опросах
Вы не можете прикреплять файлы к сообщениям
Вы не можете скачивать файлы