(Baroque, Chamber) Le Concert Royal de la Nuit: Music by Cambefort, Boesset, Constantin, Lambert, Cavalli, Rossi (Ensemble Correspondances & Sebastien Dauce) - 2015, FLAC (tracks+.cue), lossless


 

[Цитировать]

Le Concert Royal de la Nuit (Ensemble Correspondances & Sebastien Dauce)
Жанр: Baroque, Chamber
Страна-производитель диска: Франция
Год издания диска: 2015
Издатель (лейбл): Harmonia Mundi
Дата записи: 2015
Аудиокодек: FLAC
Тип рипа: tracks+.cue
Битрейт аудио: lossless
Продолжительность: 114:27
Источник: релизер (sddd)
Исполнители:
Sébastien Daucé, organ, harpsychord, & direction,
Ensemble Correspondances.
Recorded on January-February, 2015 at Grenoble, France.
Musical reconstruction after the original programme of King Louis XIV Court's Fest “Ballet Royal de la Nuict, Divisé en quatre parties, ou quatre veilles Et dansé par Sa Majesté le 23. Fevrier 1653”. Author of text - Isaac de Benserade.

Лог создания рипаЛог создания рипа CD 1

Exact Audio Copy V1.1 from 23. June 2015
EAC extraction logfile from 26. November 2015, 15:02
Ensemble Correspondances, Sebastien Dauce / Le Concert Royal de la Nuit CD1
Used drive : ATAPI iHBS112 2 Adapter: 1 ID: 0
Read mode : Secure
Utilize accurate stream : Yes
Defeat audio cache : Yes
Make use of C2 pointers : No
Read offset correction : 6
Overread into Lead-In and Lead-Out : No
Fill up missing offset samples with silence : Yes
Delete leading and trailing silent blocks : No
Null samples used in CRC calculations : Yes
Used interface : Native Win32 interface for Win NT & 2000
Gap handling : Appended to previous track
Used output format : User Defined Encoder
Selected bitrate : 1024 kBit/s
Quality : High
Add ID3 tag : No
Command line compressor : C:\Program Files\Exact Audio Copy\Flac\flac.exe
Additional command line options : -8 -V -T "ARTIST=%artist%" -T "TITLE=%title%" -T "ALBUM=%albumtitle%" -T "DATE=%year%" -T "TRACKNUMBER=%tracknr%" -T "TOTALTRACKS=%numtracks%" -T "GENRE=%genre%" -T "ALBUMARTIST=%albumartist%" -T "ALBUM ARTIST=%albumartist%" -T "COMPOSER=%composer%" -T "PERFORMER=%albuminterpret%" -T "DISCNUMBER=%cdnumber%" -T "TOTALDISCS=%totalcds%" -T "COMMENT=EAC Secure Mode, Test & Copy, AccurateRip, FLAC -8" %source%
TOC of the extracted CD
Track | Start | Length | Start sector | End sector
---------------------------------------------------------
1 | 0:00.00 | 3:05.66 | 0 | 13940
2 | 3:05.66 | 3:24.33 | 13941 | 29273
3 | 6:30.24 | 1:42.30 | 29274 | 36953
4 | 8:12.54 | 3:21.63 | 36954 | 52091
5 | 11:34.42 | 1:22.30 | 52092 | 58271
6 | 12:56.72 | 2:25.13 | 58272 | 69159
7 | 15:22.10 | 1:13.40 | 69160 | 74674
8 | 16:35.50 | 1:33.02 | 74675 | 81651
9 | 18:08.52 | 1:07.70 | 81652 | 86746
10 | 19:16.47 | 2:22.19 | 86747 | 97415
11 | 21:38.66 | 3:26.38 | 97416 | 112903
12 | 25:05.29 | 1:38.09 | 112904 | 120262
13 | 26:43.38 | 0:57.41 | 120263 | 124578
14 | 27:41.04 | 2:30.00 | 124579 | 135828
15 | 30:11.04 | 1:43.39 | 135829 | 143592
16 | 31:54.43 | 1:19.29 | 143593 | 149546
17 | 33:13.72 | 3:27.52 | 149547 | 165123
18 | 36:41.49 | 2:25.20 | 165124 | 176018
19 | 39:06.69 | 1:19.57 | 176019 | 182000
20 | 40:26.51 | 3:28.11 | 182001 | 197611
21 | 43:54.62 | 2:32.03 | 197612 | 209014
22 | 46:26.65 | 1:32.68 | 209015 | 215982
23 | 47:59.58 | 4:02.03 | 215983 | 234135
24 | 52:01.61 | 1:10.50 | 234136 | 239435
25 | 53:12.36 | 1:11.25 | 239436 | 244785
26 | 54:23.61 | 2:09.73 | 244786 | 254533
27 | 56:33.59 | 2:12.09 | 254534 | 264442
28 | 58:45.68 | 5:18.73 | 264443 | 288365
29 | 64:04.66 | 1:23.55 | 288366 | 294645
30 | 65:28.46 | 1:02.26 | 294646 | 299321
31 | 66:30.72 | 3:09.57 | 299322 | 313553
32 | 69:40.54 | 1:01.43 | 313554 | 318171
33 | 70:42.22 | 1:11.71 | 318172 | 323567
34 | 71:54.18 | 2:02.67 | 323568 | 332784
35 | 73:57.10 | 3:25.48 | 332785 | 348207
Track 1
Filename P:\DL\Ensemble Correspondances, Sebastien Dauce - Le Concert Royal de la Nuit CD1 (2015) [FLAC]\01 - Ouverture.wav
Pre-gap length 0:00:02.00
Peak level 68.0 %
Extraction speed 3.5 X
Track quality 100.0 %
Test CRC F3D371BF
Copy CRC F3D371BF
Accurately ripped (confidence 1) [636D0627] (AR v2)
Copy OK
Track 2
Filename P:\DL\Ensemble Correspondances, Sebastien Dauce - Le Concert Royal de la Nuit CD1 (2015) [FLAC]\02 - Premiere Veille - La Nuit - Recit de la Nuit - Languissante clarte.wav
Peak level 35.6 %
Extraction speed 4.0 X
Track quality 100.0 %
Test CRC 47759DF1
Copy CRC 47759DF1
Accurately ripped (confidence 1) [D961146C] (AR v2)
Copy OK
Track 3
Filename P:\DL\Ensemble Correspondances, Sebastien Dauce - Le Concert Royal de la Nuit CD1 (2015) [FLAC]\03 - Premiere Veille - La Nuit - Recit des Heures - Vous poussez le Soleil.wav
Peak level 54.6 %
Extraction speed 3.7 X
Track quality 100.0 %
Test CRC B2F52DC7
Copy CRC B2F52DC7
Accurately ripped (confidence 1) [8E833DAD] (AR v2)
Copy OK
Track 4
Filename P:\DL\Ensemble Correspondances, Sebastien Dauce - Le Concert Royal de la Nuit CD1 (2015) [FLAC]\04 - Premiere Veille - La Nuit - Recit de la Nuit - Je descends pour charmer.wav
Peak level 33.9 %
Extraction speed 3.8 X
Track quality 99.9 %
Test CRC 815F8DE6
Copy CRC 815F8DE6
Accurately ripped (confidence 1) [CE2F66EE] (AR v2)
Copy OK
Track 5
Filename P:\DL\Ensemble Correspondances, Sebastien Dauce - Le Concert Royal de la Nuit CD1 (2015) [FLAC]\05 - Premiere Veille - La Nuit - Recit des Heures - Tenez donc vos rideaux.wav
Peak level 46.9 %
Extraction speed 3.8 X
Track quality 100.0 %
Test CRC FAD8608E
Copy CRC FAD8608E
Accurately ripped (confidence 1) [5A497D06] (AR v2)
Copy OK
Track 6
Filename P:\DL\Ensemble Correspondances, Sebastien Dauce - Le Concert Royal de la Nuit CD1 (2015) [FLAC]\06 - Premiere Veille - La Nuit - Entree pour les Quatre heures - 2e air.wav
Peak level 44.8 %
Extraction speed 4.5 X
Track quality 100.0 %
Test CRC 8CE7E08D
Copy CRC 8CE7E08D
Accurately ripped (confidence 1) [F84421A9] (AR v2)
Copy OK
Track 7
Filename P:\DL\Ensemble Correspondances, Sebastien Dauce - Le Concert Royal de la Nuit CD1 (2015) [FLAC]\07 - Premiere Veille - La Nuit - Six Chasseurs - 2e air pour les mesmes.wav
Peak level 33.8 %
Extraction speed 3.8 X
Track quality 100.0 %
Test CRC C43F9E08
Copy CRC C43F9E08
Accurately ripped (confidence 1) [CAF5BC90] (AR v2)
Copy OK
Track 8
Filename P:\DL\Ensemble Correspondances, Sebastien Dauce - Le Concert Royal de la Nuit CD1 (2015) [FLAC]\08 - Premiere Veille - La Nuit - Deux Bergers & deux Bergeres - Quatre Paisans.wav
Peak level 30.4 %
Extraction speed 4.2 X
Track quality 100.0 %
Test CRC 585BD59E
Copy CRC 585BD59E
Accurately ripped (confidence 1) [8D99B5AA] (AR v2)
Copy OK
Track 9
Filename P:\DL\Ensemble Correspondances, Sebastien Dauce - Le Concert Royal de la Nuit CD1 (2015) [FLAC]\09 - Premiere Veille - La Nuit - Un Mercier et deux Bandits - Air pour les mesmes.wav
Peak level 93.8 %
Extraction speed 3.9 X
Track quality 100.0 %
Test CRC E4B70EE1
Copy CRC E4B70EE1
Accurately ripped (confidence 1) [9CD96FA8] (AR v2)
Copy OK
Track 10
Filename P:\DL\Ensemble Correspondances, Sebastien Dauce - Le Concert Royal de la Nuit CD1 (2015) [FLAC]\10 - Premiere Veille - La Nuit - Deux Galands & deux Coquettes.wav
Peak level 24.1 %
Extraction speed 4.8 X
Track quality 100.0 %
Test CRC FD1F02A1
Copy CRC FD1F02A1
Accurately ripped (confidence 1) [A2974727] (AR v2)
Copy OK
Track 11
Filename P:\DL\Ensemble Correspondances, Sebastien Dauce - Le Concert Royal de la Nuit CD1 (2015) [FLAC]\11 - Premiere Veille - La Nuit - Recit de Mnemosyne - Quelles beautes.wav
Peak level 47.1 %
Extraction speed 4.6 X
Track quality 99.9 %
Test CRC 7ED088EA
Copy CRC 7ED088EA
Accurately ripped (confidence 1) [B9B1FB1C] (AR v2)
Copy OK
Track 12
Filename P:\DL\Ensemble Correspondances, Sebastien Dauce - Le Concert Royal de la Nuit CD1 (2015) [FLAC]\12 - Premiere Veille - La Nuit - La Cour des Miracles - Egyptiens et Egyptiennes.wav
Peak level 42.0 %
Extraction speed 4.6 X
Track quality 100.0 %
Test CRC F23D8AA7
Copy CRC F23D8AA7
Accurately ripped (confidence 1) [53DB6F60] (AR v2)
Copy OK
Track 13
Filename P:\DL\Ensemble Correspondances, Sebastien Dauce - Le Concert Royal de la Nuit CD1 (2015) [FLAC]\13 - Premiere Veille - La Nuit - La Cour des Miracles - Les Boutiques se ferment.wav
Peak level 27.2 %
Extraction speed 4.0 X
Track quality 100.0 %
Test CRC CEA844AD
Copy CRC CEA844AD
Accurately ripped (confidence 1) [6CEAEDF7] (AR v2)
Copy OK
Track 14
Filename P:\DL\Ensemble Correspondances, Sebastien Dauce - Le Concert Royal de la Nuit CD1 (2015) [FLAC]\14 - Premiere Veille - La Nuit - La Cour des Miracles - Porteurs de chaises.wav
Peak level 54.4 %
Extraction speed 5.3 X
Track quality 100.0 %
Test CRC 1FB9B3F4
Copy CRC 1FB9B3F4
Accurately ripped (confidence 1) [C69989BF] (AR v2)
Copy OK
Track 15
Filename P:\DL\Ensemble Correspondances, Sebastien Dauce - Le Concert Royal de la Nuit CD1 (2015) [FLAC]\15 - Seconde Veille - Venus & les Graces - Entree des Ombres.wav
Peak level 41.9 %
Extraction speed 5.0 X
Track quality 100.0 %
Test CRC 91B836B8
Copy CRC 91B836B8
Accurately ripped (confidence 1) [7BB11BEB] (AR v2)
Copy OK
Track 16
Filename P:\DL\Ensemble Correspondances, Sebastien Dauce - Le Concert Royal de la Nuit CD1 (2015) [FLAC]\16 - Seconde Veille - Venus & les Graces - Entree des Parques.wav
Peak level 34.7 %
Extraction speed 4.6 X
Track quality 100.0 %
Test CRC FB9C5D7D
Copy CRC FB9C5D7D
Accurately ripped (confidence 1) [70F500AC] (AR v2)
Copy OK
Track 17
Filename P:\DL\Ensemble Correspondances, Sebastien Dauce - Le Concert Royal de la Nuit CD1 (2015) [FLAC]\17 - Seconde Veille - Venus & les Graces - Recit de Venus - Fuyez bien.wav
Peak level 60.4 %
Extraction speed 5.9 X
Track quality 100.0 %
Test CRC 4C6C4B9A
Copy CRC 4C6C4B9A
Accurately ripped (confidence 1) [08BF6681] (AR v2)
Copy OK
Track 18
Filename P:\DL\Ensemble Correspondances, Sebastien Dauce - Le Concert Royal de la Nuit CD1 (2015) [FLAC]\18 - Seconde Veille - Venus & les Graces - 1er air pour les Jeux, les Ris.wav
Peak level 36.1 %
Extraction speed 5.8 X
Track quality 100.0 %
Test CRC 6B6E49CB
Copy CRC 6B6E49CB
Accurately ripped (confidence 1) [8D915874] (AR v2)
Copy OK
Track 19
Filename P:\DL\Ensemble Correspondances, Sebastien Dauce - Le Concert Royal de la Nuit CD1 (2015) [FLAC]\19 - Seconde Veille - Venus & les Graces - Air pour les Graces.wav
Peak level 38.4 %
Extraction speed 5.1 X
Track quality 100.0 %
Test CRC D7676B87
Copy CRC D7676B87
Accurately ripped (confidence 1) [56C55998] (AR v2)
Copy OK
Track 20
Filename P:\DL\Ensemble Correspondances, Sebastien Dauce - Le Concert Royal de la Nuit CD1 (2015) [FLAC]\20 - Seconde Veille - Venus & les Graces - Dialogue des trois Graces.wav
Peak level 50.5 %
Extraction speed 5.5 X
Track quality 99.9 %
Test CRC 2C468BFF
Copy CRC 2C468BFF
Accurately ripped (confidence 1) [40C9AEB2] (AR v2)
Copy OK
Track 21
Filename P:\DL\Ensemble Correspondances, Sebastien Dauce - Le Concert Royal de la Nuit CD1 (2015) [FLAC]\21 - Seconde Veille - Venus & les Graces - Les Nopces de Thetis.wav
Peak level 55.2 %
Extraction speed 5.2 X
Track quality 99.9 %
Test CRC E183840C
Copy CRC E183840C
Accurately ripped (confidence 1) [F2813DA7] (AR v2)
Copy OK
Track 22
Filename P:\DL\Ensemble Correspondances, Sebastien Dauce - Le Concert Royal de la Nuit CD1 (2015) [FLAC]\22 - Seconde Veille - Venus & les Graces - La comedie muette d'Amphitrion - Premier Acte.wav
Peak level 25.8 %
Extraction speed 5.6 X
Track quality 100.0 %
Test CRC 455C1A95
Copy CRC 455C1A95
Accurately ripped (confidence 1) [312EC281] (AR v2)
Copy OK
Track 23
Filename P:\DL\Ensemble Correspondances, Sebastien Dauce - Le Concert Royal de la Nuit CD1 (2015) [FLAC]\23 - Seconde Veille - Venus & les Graces - La comedie muette d'Amphitrion - Deuxieme Acte.wav
Peak level 51.6 %
Extraction speed 6.1 X
Track quality 99.9 %
Test CRC 4BB72AC6
Copy CRC 4BB72AC6
Accurately ripped (confidence 1) [DD00CACD] (AR v2)
Copy OK
Track 24
Filename P:\DL\Ensemble Correspondances, Sebastien Dauce - Le Concert Royal de la Nuit CD1 (2015) [FLAC]\24 - Seconde Veille - Venus & les Graces - La comedie muette d'Amphitrion - Quatre petites espagnolles.wav
Peak level 30.9 %
Extraction speed 5.3 X
Track quality 100.0 %
Test CRC 0EBC0560
Copy CRC 0EBC0560
Accurately ripped (confidence 1) [4786025B] (AR v2)
Copy OK
Track 25
Filename P:\DL\Ensemble Correspondances, Sebastien Dauce - Le Concert Royal de la Nuit CD1 (2015) [FLAC]\25 - Seconde Veille - Venus & les Graces - La comedie muette d'Amphitrion - Sarabande.wav
Peak level 52.4 %
Extraction speed 5.4 X
Track quality 100.0 %
Test CRC 5F357942
Copy CRC 5F357942
Accurately ripped (confidence 1) [D4464009] (AR v2)
Copy OK
Track 26
Filename P:\DL\Ensemble Correspondances, Sebastien Dauce - Le Concert Royal de la Nuit CD1 (2015) [FLAC]\26 - Seconde Veille - Venus & les Graces - La comedie muette d'Amphitrion - Coro degl'Italiani.wav
Peak level 71.0 %
Extraction speed 6.3 X
Track quality 100.0 %
Test CRC DEDA2066
Copy CRC DEDA2066
Accurately ripped (confidence 1) [01BAC5EF] (AR v2)
Copy OK
Track 27
Filename P:\DL\Ensemble Correspondances, Sebastien Dauce - Le Concert Royal de la Nuit CD1 (2015) [FLAC]\27 - Seconde Veille - Venus & les Graces - La comedie muette d'Amphitrion - Recitativo di Cintia.wav
Peak level 72.9 %
Extraction speed 5.4 X
Track quality 99.9 %
Test CRC 7C646937
Copy CRC 7C646937
Accurately ripped (confidence 1) [DF55AA89] (AR v2)
Copy OK
Track 28
Filename P:\DL\Ensemble Correspondances, Sebastien Dauce - Le Concert Royal de la Nuit CD1 (2015) [FLAC]\28 - Troisieme Veille - Hercule amoureux - Recit de la Lune.wav
Peak level 41.7 %
Extraction speed 7.6 X
Track quality 100.0 %
Test CRC D5A4612D
Copy CRC D5A4612D
Accurately ripped (confidence 1) [19F7C583] (AR v2)
Copy OK
Track 29
Filename P:\DL\Ensemble Correspondances, Sebastien Dauce - Le Concert Royal de la Nuit CD1 (2015) [FLAC]\29 - Troisieme Veille - Hercule amoureux - Entree pour Endimion.wav
Peak level 32.8 %
Extraction speed 6.0 X
Track quality 100.0 %
Test CRC 97006E27
Copy CRC 97006E27
Accurately ripped (confidence 1) [7B41B2ED] (AR v2)
Copy OK
Track 30
Filename P:\DL\Ensemble Correspondances, Sebastien Dauce - Le Concert Royal de la Nuit CD1 (2015) [FLAC]\30 - Troisieme Veille - Hercule amoureux - Entree pour la Lune.wav
Peak level 32.0 %
Extraction speed 5.5 X
Track quality 100.0 %
Test CRC 3E466E5A
Copy CRC 3E466E5A
Accurately ripped (confidence 1) [1A8B47DD] (AR v2)
Copy OK
Track 31
Filename P:\DL\Ensemble Correspondances, Sebastien Dauce - Le Concert Royal de la Nuit CD1 (2015) [FLAC]\31 - Troisieme Veille - Hercule amoureux - Recit d'Endimion.wav
Peak level 41.0 %
Extraction speed 7.4 X
Track quality 100.0 %
Test CRC E6F3AB26
Copy CRC E6F3AB26
Accurately ripped (confidence 1) [28AF3C86] (AR v2)
Copy OK
Track 32
Filename P:\DL\Ensemble Correspondances, Sebastien Dauce - Le Concert Royal de la Nuit CD1 (2015) [FLAC]\32 - Troisieme Veille - Hercule amoureux - Entree pour Hercule amoureux.wav
Peak level 57.9 %
Extraction speed 5.6 X
Track quality 100.0 %
Test CRC E4413B6C
Copy CRC E4413B6C
Accurately ripped (confidence 1) [0631EB19] (AR v2)
Copy OK
Track 33
Filename P:\DL\Ensemble Correspondances, Sebastien Dauce - Le Concert Royal de la Nuit CD1 (2015) [FLAC]\33 - Troisieme Veille - Hercule amoureux - Aria d'Ercole.wav
Peak level 44.9 %
Extraction speed 6.0 X
Track quality 100.0 %
Test CRC 1CB133A8
Copy CRC 1CB133A8
Accurately ripped (confidence 1) [4C02C52E] (AR v2)
Copy OK
Track 34
Filename P:\DL\Ensemble Correspondances, Sebastien Dauce - Le Concert Royal de la Nuit CD1 (2015) [FLAC]\34 - Troisieme Veille - Hercule amoureux - Recitativo di Dejanira.wav
Peak level 50.7 %
Extraction speed 6.7 X
Track quality 100.0 %
Test CRC 0BD3566B
Copy CRC 0BD3566B
Accurately ripped (confidence 1) [2A97E3D3] (AR v2)
Copy OK
Track 35
Filename P:\DL\Ensemble Correspondances, Sebastien Dauce - Le Concert Royal de la Nuit CD1 (2015) [FLAC]\35 - Troisieme Veille - Hercule amoureux - Aria di Dejanira.wav
Peak level 83.6 %
Extraction speed 7.8 X
Track quality 100.0 %
Test CRC 08B34823
Copy CRC 08B34823
Accurately ripped (confidence 1) [4DCF05E3] (AR v2)
Copy OK
All tracks accurately ripped
No errors occurred
End of status report
---- CUETools DB Plugin V2.1.6
[CTDB TOCID: ewUA8aZpxhu79ttuT.JFq_sMKiM-] found
Submit result:
Track | CTDB Status
1 | (3/3) Accurately ripped
2 | (3/3) Accurately ripped
3 | (3/3) Accurately ripped
4 | (3/3) Accurately ripped
5 | (3/3) Accurately ripped
6 | (3/3) Accurately ripped
7 | (3/3) Accurately ripped
8 | (3/3) Accurately ripped
9 | (3/3) Accurately ripped
10 | (3/3) Accurately ripped
11 | (3/3) Accurately ripped
12 | (3/3) Accurately ripped
13 | (3/3) Accurately ripped
14 | (3/3) Accurately ripped
15 | (3/3) Accurately ripped
16 | (3/3) Accurately ripped
17 | (3/3) Accurately ripped
18 | (3/3) Accurately ripped
19 | (3/3) Accurately ripped
20 | (3/3) Accurately ripped
21 | (3/3) Accurately ripped
22 | (3/3) Accurately ripped
23 | (3/3) Accurately ripped
24 | (3/3) Accurately ripped
25 | (3/3) Accurately ripped
26 | (3/3) Accurately ripped
27 | (3/3) Accurately ripped
28 | (3/3) Accurately ripped
29 | (3/3) Accurately ripped
30 | (3/3) Accurately ripped
31 | (3/3) Accurately ripped
32 | (3/3) Accurately ripped
33 | (3/3) Accurately ripped
34 | (3/3) Accurately ripped
35 | (2/3) Accurately ripped
==== Log checksum F9A20EF3ADD3A3D80EECB7BEDC73F2085AA5CDD084A8F9E93FBADEC7E6CB21B8 ====

Лог создания рипа CD 2

Exact Audio Copy V1.1 from 23. June 2015
EAC extraction logfile from 26. November 2015, 14:12
Ensemble Correspondances, Sebastien Dauce / Le Concert Royal de la Nuit CD2
Used drive : ATAPI iHBS112 2 Adapter: 1 ID: 0
Read mode : Secure
Utilize accurate stream : Yes
Defeat audio cache : Yes
Make use of C2 pointers : No
Read offset correction : 6
Overread into Lead-In and Lead-Out : No
Fill up missing offset samples with silence : Yes
Delete leading and trailing silent blocks : No
Null samples used in CRC calculations : Yes
Used interface : Native Win32 interface for Win NT & 2000
Gap handling : Appended to previous track
Used output format : User Defined Encoder
Selected bitrate : 1024 kBit/s
Quality : High
Add ID3 tag : No
Command line compressor : C:\Program Files\Exact Audio Copy\Flac\flac.exe
Additional command line options : -8 -V -T "ARTIST=%artist%" -T "TITLE=%title%" -T "ALBUM=%albumtitle%" -T "DATE=%year%" -T "TRACKNUMBER=%tracknr%" -T "TOTALTRACKS=%numtracks%" -T "GENRE=%genre%" -T "ALBUMARTIST=%albumartist%" -T "ALBUM ARTIST=%albumartist%" -T "COMPOSER=%composer%" -T "PERFORMER=%albuminterpret%" -T "DISCNUMBER=%cdnumber%" -T "TOTALDISCS=%totalcds%" -T "COMMENT=EAC Secure Mode, Test & Copy, AccurateRip, FLAC -8" %source%
TOC of the extracted CD
Track | Start | Length | Start sector | End sector
---------------------------------------------------------
1 | 0:00.00 | 4:44.61 | 0 | 21360
2 | 4:44.61 | 4:48.26 | 21361 | 42986
3 | 9:33.12 | 1:01.30 | 42987 | 47591
4 | 10:34.42 | 1:15.57 | 47592 | 53273
5 | 11:50.24 | 1:15.52 | 53274 | 58950
6 | 13:06.01 | 2:15.10 | 58951 | 69085
7 | 15:21.11 | 2:17.70 | 69086 | 79430
8 | 17:39.06 | 1:15.54 | 79431 | 85109
9 | 18:54.60 | 1:13.38 | 85110 | 90622
10 | 20:08.23 | 1:47.50 | 90623 | 98697
11 | 21:55.73 | 1:42.03 | 98698 | 106350
12 | 23:38.01 | 3:47.25 | 106351 | 123400
13 | 27:25.26 | 2:27.57 | 123401 | 134482
14 | 29:53.08 | 0:53.20 | 134483 | 138477
15 | 30:46.28 | 3:53.20 | 138478 | 155972
16 | 34:39.48 | 2:58.45 | 155973 | 169367
17 | 37:38.18 | 3:28.11 | 169368 | 184978
18 | 41:06.29 | 1:14.22 | 184979 | 190550
19 | 42:20.51 | 2:29.50 | 190551 | 201775
20 | 44:50.26 | 2:02.15 | 201776 | 210940
21 | 46:52.41 | 1:42.74 | 210941 | 218664
22 | 48:35.40 | 2:26.48 | 218665 | 229662
23 | 51:02.13 | 1:42.01 | 229663 | 237313
24 | 52:44.14 | 3:42.50 | 237314 | 254013
25 | 56:26.64 | 5:49.36 | 254014 | 280224
26 | 62:16.25 | 3:05.31 | 280225 | 294130
27 | 65:21.56 | 2:29.01 | 294131 | 305306
28 | 67:50.57 | 2:38.73 | 305307 | 317229
29 | 70:29.55 | 1:28.35 | 317230 | 323864
30 | 71:58.15 | 0:47.33 | 323865 | 327422
31 | 72:45.48 | 1:03.40 | 327423 | 332187
32 | 73:49.13 | 0:47.38 | 332188 | 335750
33 | 74:36.51 | 2:00.14 | 335751 | 344764
Track 1
Filename P:\DL\Ensemble Correspondances, Sebastien Dauce - Le Concert Royal de la Nuit CD2 (2015) [FLAC]\01 - Troisieme Veille - Hercule amoureux - Le Sabbat - Aria di Venere & delle Grazie.wav
Pre-gap length 0:00:02.00
Peak level 53.8 %
Extraction speed 5.8 X
Track quality 100.0 %
Test CRC F5458AF7
Copy CRC F5458AF7
Accurately ripped (confidence 1) [8C765F42] (AR v2)
Copy OK
Track 2
Filename P:\DL\Ensemble Correspondances, Sebastien Dauce - Le Concert Royal de la Nuit CD2 (2015) [FLAC]\02 - Troisieme Veille - Hercule amoureux - Le Sabbat - Aria di Giunone.wav
Peak level 84.8 %
Extraction speed 6.4 X
Track quality 100.0 %
Test CRC BA7AA15F
Copy CRC BA7AA15F
Accurately ripped (confidence 1) [8986BA94] (AR v2)
Copy OK
Track 3
Filename P:\DL\Ensemble Correspondances, Sebastien Dauce - Le Concert Royal de la Nuit CD2 (2015) [FLAC]\03 - Troisieme Veille - Hercule amoureux - Le Sabbat - Les Coribantes.wav
Peak level 51.0 %
Extraction speed 3.1 X
Track quality 99.8 %
Test CRC 0292F73E
Copy CRC 0292F73E
Accurately ripped (confidence 1) [C9C77B23] (AR v2)
Copy OK
Track 4
Filename P:\DL\Ensemble Correspondances, Sebastien Dauce - Le Concert Royal de la Nuit CD2 (2015) [FLAC]\04 - Troisieme Veille - Hercule amoureux - Le Sabbat - Huict Ardens.wav
Peak level 45.4 %
Extraction speed 5.2 X
Track quality 100.0 %
Test CRC B5EE5C47
Copy CRC B5EE5C47
Accurately ripped (confidence 1) [EF1A86D9] (AR v2)
Copy OK
Track 5
Filename P:\DL\Ensemble Correspondances, Sebastien Dauce - Le Concert Royal de la Nuit CD2 (2015) [FLAC]\05 - Troisieme Veille - Hercule amoureux - Le Sabbat - Choeur des Sacrificateurs.wav
Peak level 95.1 %
Extraction speed 3.6 X
Track quality 99.8 %
Test CRC 2330A5BD
Copy CRC 2330A5BD
Accurately ripped (confidence 1) [03FA6FD6] (AR v2)
Copy OK
Track 6
Filename P:\DL\Ensemble Correspondances, Sebastien Dauce - Le Concert Royal de la Nuit CD2 (2015) [FLAC]\06 - Troisieme Veille - Hercule amoureux - Le Sabbat - Un grand Homme.wav
Peak level 33.4 %
Extraction speed 4.8 X
Track quality 99.9 %
Test CRC 49A107D2
Copy CRC 49A107D2
Accurately ripped (confidence 1) [A575B849] (AR v2)
Copy OK
Track 7
Filename P:\DL\Ensemble Correspondances, Sebastien Dauce - Le Concert Royal de la Nuit CD2 (2015) [FLAC]\07 - Troisieme Veille - Hercule amoureux - Le Sabbat - Une magicienne & quatre vieilles Sorcieres.wav
Peak level 36.0 %
Extraction speed 6.6 X
Track quality 100.0 %
Test CRC 63066A18
Copy CRC 63066A18
Accurately ripped (confidence 1) [CC2C3121] (AR v2)
Copy OK
Track 8
Filename P:\DL\Ensemble Correspondances, Sebastien Dauce - Le Concert Royal de la Nuit CD2 (2015) [FLAC]\08 - Troisieme Veille - Hercule amoureux - Le Sabbat - Choeur des Sacrificateurs.wav
Peak level 87.9 %
Extraction speed 5.7 X
Track quality 100.0 %
Test CRC 627ABE2F
Copy CRC 627ABE2F
Accurately ripped (confidence 1) [CFAA4512] (AR v2)
Copy OK
Track 9
Filename P:\DL\Ensemble Correspondances, Sebastien Dauce - Le Concert Royal de la Nuit CD2 (2015) [FLAC]\09 - Troisieme Veille - Hercule amoureux - Le Sabbat - Trois Curieux.wav
Peak level 34.6 %
Extraction speed 5.8 X
Track quality 100.0 %
Test CRC 7D4142E4
Copy CRC 7D4142E4
Accurately ripped (confidence 1) [C33AAF3F] (AR v2)
Copy OK
Track 10
Filename P:\DL\Ensemble Correspondances, Sebastien Dauce - Le Concert Royal de la Nuit CD2 (2015) [FLAC]\10 - Troisieme Veille - Hercule amoureux - Le Sabbat - Quatre ames errantes.wav
Peak level 32.6 %
Extraction speed 6.5 X
Track quality 100.0 %
Test CRC 3F966E5F
Copy CRC 3F966E5F
Accurately ripped (confidence 1) [EF73D01B] (AR v2)
Copy OK
Track 11
Filename P:\DL\Ensemble Correspondances, Sebastien Dauce - Le Concert Royal de la Nuit CD2 (2015) [FLAC]\11 - Troisieme Veille - Hercule amoureux - Le Sabbat - Aria di Pasitea.wav
Peak level 55.1 %
Extraction speed 6.6 X
Track quality 100.0 %
Test CRC A405E738
Copy CRC A405E738
Accurately ripped (confidence 1) [EF88BAF7] (AR v2)
Copy OK
Track 12
Filename P:\DL\Ensemble Correspondances, Sebastien Dauce - Le Concert Royal de la Nuit CD2 (2015) [FLAC]\12 - Troisieme Veille - Hercule amoureux - Le Sabbat - Coro di Aure & Ruscelli.wav
Peak level 23.0 %
Extraction speed 7.9 X
Track quality 100.0 %
Test CRC 9F673111
Copy CRC 9F673111
Accurately ripped (confidence 1) [080DBE20] (AR v2)
Copy OK
Track 13
Filename P:\DL\Ensemble Correspondances, Sebastien Dauce - Le Concert Royal de la Nuit CD2 (2015) [FLAC]\13 - Troisieme Veille - Hercule amoureux - Le Sabbat - Dialogo di Pasitea & Giunone.wav
Peak level 37.7 %
Extraction speed 7.5 X
Track quality 100.0 %
Test CRC EFE9EE95
Copy CRC EFE9EE95
Accurately ripped (confidence 1) [FD247F4C] (AR v2)
Copy OK
Track 14
Filename P:\DL\Ensemble Correspondances, Sebastien Dauce - Le Concert Royal de la Nuit CD2 (2015) [FLAC]\14 - Troisieme Veille - Hercule amoureux - Le Sabbat - Aria di Giunone.wav
Peak level 52.2 %
Extraction speed 5.8 X
Track quality 100.0 %
Test CRC 46B3CBA0
Copy CRC 46B3CBA0
Accurately ripped (confidence 1) [F425A9BA] (AR v2)
Copy OK
Track 15
Filename P:\DL\Ensemble Correspondances, Sebastien Dauce - Le Concert Royal de la Nuit CD2 (2015) [FLAC]\15 - Quatrieme Veille - Orphee - Dialogue du Sommeil & du Silence.wav
Peak level 29.5 %
Extraction speed 8.4 X
Track quality 100.0 %
Test CRC 96108869
Copy CRC 96108869
Accurately ripped (confidence 1) [677C0AC7] (AR v2)
Copy OK
Track 16
Filename P:\DL\Ensemble Correspondances, Sebastien Dauce - Le Concert Royal de la Nuit CD2 (2015) [FLAC]\16 - Quatrieme Veille - Orphee - Les Songes - Les quatre Demons.wav
Peak level 46.0 %
Extraction speed 6.8 X
Track quality 99.9 %
Test CRC AB7253FB
Copy CRC AB7253FB
Accurately ripped (confidence 1) [D392F699] (AR v2)
Copy OK
Track 17
Filename P:\DL\Ensemble Correspondances, Sebastien Dauce - Le Concert Royal de la Nuit CD2 (2015) [FLAC]\17 - Quatrieme Veille - Orphee - Les Songes - Recit des Dieux des Songes.wav
Peak level 41.7 %
Extraction speed 7.2 X
Track quality 99.9 %
Test CRC 5DFA526F
Copy CRC 5DFA526F
Accurately ripped (confidence 1) [AC35E739] (AR v2)
Copy OK
Track 18
Filename P:\DL\Ensemble Correspondances, Sebastien Dauce - Le Concert Royal de la Nuit CD2 (2015) [FLAC]\18 - Quatrieme Veille - Orphee - Les Songes - L'humeur Melancolique.wav
Peak level 19.5 %
Extraction speed 7.1 X
Track quality 100.0 %
Test CRC C1EB1857
Copy CRC C1EB1857
Accurately ripped (confidence 1) [B140138C] (AR v2)
Copy OK
Track 19
Filename P:\DL\Ensemble Correspondances, Sebastien Dauce - Le Concert Royal de la Nuit CD2 (2015) [FLAC]\19 - Quatrieme Veille - Orphee - Les Songes - Dialogue d'Orphee et des Hamadryades.wav
Peak level 52.4 %
Extraction speed 8.6 X
Track quality 100.0 %
Test CRC 0F3D3722
Copy CRC 0F3D3722
Accurately ripped (confidence 1) [8FA25FD6] (AR v2)
Copy OK
Track 20
Filename P:\DL\Ensemble Correspondances, Sebastien Dauce - Le Concert Royal de la Nuit CD2 (2015) [FLAC]\20 - Quatrieme Veille - Orphee - Les Songes - Passacaille pour Orphee.wav
Peak level 29.9 %
Extraction speed 8.3 X
Track quality 100.0 %
Test CRC 8BA9735B
Copy CRC 8BA9735B
Accurately ripped (confidence 1) [1780684F] (AR v2)
Copy OK
Track 21
Filename P:\DL\Ensemble Correspondances, Sebastien Dauce - Le Concert Royal de la Nuit CD2 (2015) [FLAC]\21 - Quatrieme Veille - Orphee - Les Songes - Aria d'Euridice.wav
Peak level 52.9 %
Extraction speed 8.0 X
Track quality 100.0 %
Test CRC EF04F1DC
Copy CRC EF04F1DC
Accurately ripped (confidence 1) [A8AEC367] (AR v2)
Copy OK
Track 22
Filename P:\DL\Ensemble Correspondances, Sebastien Dauce - Le Concert Royal de la Nuit CD2 (2015) [FLAC]\22 - Quatrieme Veille - Orphee - Les Songes - Coro delle Grazie.wav
Peak level 37.7 %
Extraction speed 8.9 X
Track quality 100.0 %
Test CRC DFB9D95C
Copy CRC DFB9D95C
Accurately ripped (confidence 1) [5C2CCD0F] (AR v2)
Copy OK
Track 23
Filename P:\DL\Ensemble Correspondances, Sebastien Dauce - Le Concert Royal de la Nuit CD2 (2015) [FLAC]\23 - Quatrieme Veille - Orphee - Les Songes - Coro de Drialdi & Euridice.wav
Peak level 88.5 %
Extraction speed 8.4 X
Track quality 100.0 %
Test CRC 438B06CF
Copy CRC 438B06CF
Accurately ripped (confidence 1) [648AD452] (AR v2)
Copy OK
Track 24
Filename P:\DL\Ensemble Correspondances, Sebastien Dauce - Le Concert Royal de la Nuit CD2 (2015) [FLAC]\24 - Quatrieme Veille - Orphee - Les Songes - La morte d'Euridice.wav
Peak level 46.0 %
Extraction speed 9.8 X
Track quality 100.0 %
Test CRC E9BF85FD
Copy CRC E9BF85FD
Accurately ripped (confidence 1) [946C6E6C] (AR v2)
Copy OK
Track 25
Filename P:\DL\Ensemble Correspondances, Sebastien Dauce - Le Concert Royal de la Nuit CD2 (2015) [FLAC]\25 - Quatrieme Veille - Orphee - Les Songes - Coro di Driadi & Apollo.wav
Peak level 59.5 %
Extraction speed 10.4 X
Track quality 100.0 %
Test CRC 33BBF6F5
Copy CRC 33BBF6F5
Accurately ripped (confidence 1) [F56458A8] (AR v2)
Copy OK
Track 26
Filename P:\DL\Ensemble Correspondances, Sebastien Dauce - Le Concert Royal de la Nuit CD2 (2015) [FLAC]\26 - Quatrieme Veille - Orphee - Les Songes - Fantaisie pour les Pleurs d'Orphee.wav
Peak level 40.3 %
Extraction speed 10.1 X
Track quality 100.0 %
Test CRC B3E70635
Copy CRC B3E70635
Accurately ripped (confidence 1) [A88DE399] (AR v2)
Copy OK
Track 27
Filename P:\DL\Ensemble Correspondances, Sebastien Dauce - Le Concert Royal de la Nuit CD2 (2015) [FLAC]\27 - Grand Ballet - Le Soleil - Recit de l'Aurore - Depuis que j'ouvre l'Orient.wav
Peak level 26.9 %
Extraction speed 9.6 X
Track quality 100.0 %
Test CRC FC731878
Copy CRC FC731878
Accurately ripped (confidence 1) [DB4F794A] (AR v2)
Copy OK
Track 28
Filename P:\DL\Ensemble Correspondances, Sebastien Dauce - Le Concert Royal de la Nuit CD2 (2015) [FLAC]\28 - Grand Ballet - Le Soleil - Les Planetes - Entree du Roy representant le Soleil levant.wav
Peak level 59.4 %
Extraction speed 9.5 X
Track quality 100.0 %
Test CRC 65944CFA
Copy CRC 65944CFA
Accurately ripped (confidence 1) [9DC95332] (AR v2)
Copy OK
Track 29
Filename P:\DL\Ensemble Correspondances, Sebastien Dauce - Le Concert Royal de la Nuit CD2 (2015) [FLAC]\29 - Grand Ballet - Le Soleil - Les Planetes - Coro dei Pianeti.wav
Peak level 71.2 %
Extraction speed 6.2 X
Track quality 99.8 %
Test CRC 26683E33
Copy CRC 26683E33
Accurately ripped (confidence 1) [347A6B98] (AR v2)
Copy OK
Track 30
Filename P:\DL\Ensemble Correspondances, Sebastien Dauce - Le Concert Royal de la Nuit CD2 (2015) [FLAC]\30 - Grand Ballet - Le Soleil - Les Planetes - Duo d'Ercole & la Bellezza.wav
Peak level 40.6 %
Extraction speed 3.3 X
Track quality 99.5 %
Test CRC 9F820347
Copy CRC 9F820347
Accurately ripped (confidence 1) [761227F5] (AR v2)
Copy OK
Track 31
Filename P:\DL\Ensemble Correspondances, Sebastien Dauce - Le Concert Royal de la Nuit CD2 (2015) [FLAC]\31 - Grand Ballet - Le Soleil - Les Planetes - Coro dei Pianeti.wav
Peak level 86.2 %
Extraction speed 3.1 X
Track quality 99.5 %
Test CRC 325B89F2
Copy CRC 325B89F2
Accurately ripped (confidence 1) [1135CDEB] (AR v2)
Copy OK
Track 32
Filename P:\DL\Ensemble Correspondances, Sebastien Dauce - Le Concert Royal de la Nuit CD2 (2015) [FLAC]\32 - Grand Ballet - Le Soleil - Les Planetes - Libertas.wav
Peak level 35.0 %
Extraction speed 2.5 X
Track quality 99.3 %
Test CRC 071BD4EE
Copy CRC 071BD4EE
Accurately ripped (confidence 1) [12226676] (AR v2)
Copy OK
Track 33
Filename P:\DL\Ensemble Correspondances, Sebastien Dauce - Le Concert Royal de la Nuit CD2 (2015) [FLAC]\33 - Grand Ballet - Le Soleil - Les Planetes - Tutti.wav
Peak level 84.3 %
Extraction speed 3.3 X
Track quality 99.6 %
Test CRC 76F7F34F
Copy CRC 76F7F34F
Accurately ripped (confidence 1) [4A7EE8AA] (AR v2)
Copy OK
All tracks accurately ripped
No errors occurred
End of status report
---- CUETools DB Plugin V2.1.6
[CTDB TOCID: Q86R96SfvA7hgNoESZlwYFU2u.4-] found
Submit result:
Track | CTDB Status
1 | (2/2) Accurately ripped
2 | (2/2) Accurately ripped
3 | (2/2) Accurately ripped
4 | (2/2) Accurately ripped
5 | (2/2) Accurately ripped
6 | (2/2) Accurately ripped
7 | (2/2) Accurately ripped
8 | (2/2) Accurately ripped
9 | (2/2) Accurately ripped
10 | (2/2) Accurately ripped
11 | (2/2) Accurately ripped
12 | (2/2) Accurately ripped
13 | (2/2) Accurately ripped
14 | (2/2) Accurately ripped
15 | (2/2) Accurately ripped
16 | (2/2) Accurately ripped
17 | (2/2) Accurately ripped
18 | (2/2) Accurately ripped
19 | (2/2) Accurately ripped
20 | (2/2) Accurately ripped
21 | (2/2) Accurately ripped
22 | (2/2) Accurately ripped
23 | (2/2) Accurately ripped
24 | (2/2) Accurately ripped
25 | (2/2) Accurately ripped
26 | (2/2) Accurately ripped
27 | (2/2) Accurately ripped
28 | (2/2) Accurately ripped
29 | (2/2) Accurately ripped
30 | (2/2) Accurately ripped
31 | (2/2) Accurately ripped
32 | (2/2) Accurately ripped
33 | (2/2) Accurately ripped
==== Log checksum F5CB38588A9E7F250075681888370F7777177907C59FB0ED7B8844A0B75AB487 ====

Содержание индексной карты (.CUE)Содержание индексной карты (.CUE) CD 1

REM GENRE Classical
REM DATE 2015
REM DISCID 30122223
REM COMMENT "ExactAudioCopy v1.1"
PERFORMER "Ensemble Correspondances, Sebastien Dauce"
TITLE "Le Concert Royal de la Nuit CD1"
FILE "01 - Ouverture.wav" WAVE
TRACK 01 AUDIO
TITLE "Ouverture"
PERFORMER "Ensemble Correspondances, Sebastien Dauce"
INDEX 01 00:00:00
FILE "02 - Premiere Veille - La Nuit - Recit de la Nuit - Languissante clarte.wav" WAVE
TRACK 02 AUDIO
TITLE "Premiиre Veille - La Nuit : Rйcit de la Nuit - Languissante clartй"
PERFORMER "Ensemble Correspondances, Sebastien Dauce"
INDEX 01 00:00:00
FILE "03 - Premiere Veille - La Nuit - Recit des Heures - Vous poussez le Soleil.wav" WAVE
TRACK 03 AUDIO
TITLE "Premiиre Veille - La Nuit : Rйcit des Heures - Vous poussez le Soleil"
PERFORMER "Ensemble Correspondances, Sebastien Dauce"
INDEX 01 00:00:00
FILE "04 - Premiere Veille - La Nuit - Recit de la Nuit - Je descends pour charmer.wav" WAVE
TRACK 04 AUDIO
TITLE "Premiиre Veille - La Nuit : Rйcit de la Nuit - Je descends pour charmer"
PERFORMER "Ensemble Correspondances, Sebastien Dauce"
INDEX 01 00:00:00
FILE "05 - Premiere Veille - La Nuit - Recit des Heures - Tenez donc vos rideaux.wav" WAVE
TRACK 05 AUDIO
TITLE "Premiиre Veille - La Nuit : Rйcit des Heures - Tenez donc vos rideaux"
PERFORMER "Ensemble Correspondances, Sebastien Dauce"
INDEX 01 00:00:00
FILE "06 - Premiere Veille - La Nuit - Entree pour les Quatre heures - 2e air.wav" WAVE
TRACK 06 AUDIO
TITLE "Premiиre Veille - La Nuit : Entrйe pour les Quatre heures - 2e air"
PERFORMER "Ensemble Correspondances, Sebastien Dauce"
INDEX 01 00:00:00
FILE "07 - Premiere Veille - La Nuit - Six Chasseurs - 2e air pour les mesmes.wav" WAVE
TRACK 07 AUDIO
TITLE "Premiиre Veille - La Nuit : Six Chasseurs - 2e air pour les mesmes"
PERFORMER "Ensemble Correspondances, Sebastien Dauce"
INDEX 01 00:00:00
FILE "08 - Premiere Veille - La Nuit - Deux Bergers & deux Bergeres - Quatre Paisans.wav" WAVE
TRACK 08 AUDIO
TITLE "Premiиre Veille - La Nuit : Deux Bergers & deux Bergиres - Quatre Paisans"
PERFORMER "Ensemble Correspondances, Sebastien Dauce"
INDEX 01 00:00:00
FILE "09 - Premiere Veille - La Nuit - Un Mercier et deux Bandits - Air pour les mesmes.wav" WAVE
TRACK 09 AUDIO
TITLE "Premiиre Veille - La Nuit : Un Mercier et deux Bandits - Air pour les mesmes"
PERFORMER "Ensemble Correspondances, Sebastien Dauce"
INDEX 01 00:00:00
FILE "10 - Premiere Veille - La Nuit - Deux Galands & deux Coquettes.wav" WAVE
TRACK 10 AUDIO
TITLE "Premiиre Veille - La Nuit : Deux Galands & deux Coquettes"
PERFORMER "Ensemble Correspondances, Sebastien Dauce"
INDEX 01 00:00:00
FILE "11 - Premiere Veille - La Nuit - Recit de Mnemosyne - Quelles beautes.wav" WAVE
TRACK 11 AUDIO
TITLE "Premiиre Veille - La Nuit : Rйcit de Mnйmosyne : Quelles beautйs"
PERFORMER "Ensemble Correspondances, Sebastien Dauce"
INDEX 01 00:00:00
FILE "12 - Premiere Veille - La Nuit - La Cour des Miracles - Egyptiens et Egyptiennes.wav" WAVE
TRACK 12 AUDIO
TITLE "Premiиre Veille - La Nuit : La Cour des Miracles - Egyptiens et Egyptiennes"
PERFORMER "Ensemble Correspondances, Sebastien Dauce"
INDEX 01 00:00:00
FILE "13 - Premiere Veille - La Nuit - La Cour des Miracles - Les Boutiques se ferment.wav" WAVE
TRACK 13 AUDIO
TITLE "Premiиre Veille - La Nuit : La Cour des Miracles - Les Boutiques se ferment"
PERFORMER "Ensemble Correspondances, Sebastien Dauce"
INDEX 01 00:00:00
FILE "14 - Premiere Veille - La Nuit - La Cour des Miracles - Porteurs de chaises.wav" WAVE
TRACK 14 AUDIO
TITLE "Premiиre Veille - La Nuit : La Cour des Miracles - Porteurs de chaises"
PERFORMER "Ensemble Correspondances, Sebastien Dauce"
INDEX 01 00:00:00
FILE "15 - Seconde Veille - Venus & les Graces - Entree des Ombres.wav" WAVE
TRACK 15 AUDIO
TITLE "Seconde Veille - Vйnus & les Grвces : Entrйe des Ombres"
PERFORMER "Ensemble Correspondances, Sebastien Dauce"
INDEX 01 00:00:00
FILE "16 - Seconde Veille - Venus & les Graces - Entree des Parques.wav" WAVE
TRACK 16 AUDIO
TITLE "Seconde Veille - Vйnus & les Grвces : Entrйe des Parques"
PERFORMER "Ensemble Correspondances, Sebastien Dauce"
INDEX 01 00:00:00
FILE "17 - Seconde Veille - Venus & les Graces - Recit de Venus - Fuyez bien.wav" WAVE
TRACK 17 AUDIO
TITLE "Seconde Veille - Vйnus & les Grвces : Rйcit de Vйnus - Fuyez bien"
PERFORMER "Ensemble Correspondances, Sebastien Dauce"
INDEX 01 00:00:00
FILE "18 - Seconde Veille - Venus & les Graces - 1er air pour les Jeux, les Ris.wav" WAVE
TRACK 18 AUDIO
TITLE "Seconde Veille - Vйnus & les Grвces : 1er air pour les Jeux, les Ris"
PERFORMER "Ensemble Correspondances, Sebastien Dauce"
INDEX 01 00:00:00
FILE "19 - Seconde Veille - Venus & les Graces - Air pour les Graces.wav" WAVE
TRACK 19 AUDIO
TITLE "Seconde Veille - Vйnus & les Grвces : Air pour les Grвces"
PERFORMER "Ensemble Correspondances, Sebastien Dauce"
INDEX 01 00:00:00
FILE "20 - Seconde Veille - Venus & les Graces - Dialogue des trois Graces.wav" WAVE
TRACK 20 AUDIO
TITLE "Seconde Veille - Vйnus & les Grвces : Dialogue des trois Grвces"
PERFORMER "Ensemble Correspondances, Sebastien Dauce"
INDEX 01 00:00:00
FILE "21 - Seconde Veille - Venus & les Graces - Les Nopces de Thetis.wav" WAVE
TRACK 21 AUDIO
TITLE "Seconde Veille - Vйnus & les Grвces : Les Nopces de Thйtis"
PERFORMER "Ensemble Correspondances, Sebastien Dauce"
INDEX 01 00:00:00
FILE "22 - Seconde Veille - Venus & les Graces - La comedie muette d'Amphitrion - Premier Acte.wav" WAVE
TRACK 22 AUDIO
TITLE "Seconde Veille - Vйnus & les Grвces : La comйdie muette d'Amphitrion : Premie..."
PERFORMER "Ensemble Correspondances, Sebastien Dauce"
INDEX 01 00:00:00
FILE "23 - Seconde Veille - Venus & les Graces - La comedie muette d'Amphitrion - Deuxieme Acte.wav" WAVE
TRACK 23 AUDIO
TITLE "Seconde Veille - Vйnus & les Grвces : La comйdie muette d'Amphitrion : Deuxiи..."
PERFORMER "Ensemble Correspondances, Sebastien Dauce"
INDEX 01 00:00:00
FILE "24 - Seconde Veille - Venus & les Graces - La comedie muette d'Amphitrion - Quatre petites espagnolles.wav" WAVE
TRACK 24 AUDIO
TITLE "Seconde Veille - Vйnus & les Grвces : La comйdie muette d'Amphitrion : Quatre..."
PERFORMER "Ensemble Correspondances, Sebastien Dauce"
INDEX 01 00:00:00
FILE "25 - Seconde Veille - Venus & les Graces - La comedie muette d'Amphitrion - Sarabande.wav" WAVE
TRACK 25 AUDIO
TITLE "Seconde Veille - Vйnus & les Grвces : La comйdie muette d'Amphitrion : Sarabande"
PERFORMER "Ensemble Correspondances, Sebastien Dauce"
INDEX 01 00:00:00
FILE "26 - Seconde Veille - Venus & les Graces - La comedie muette d'Amphitrion - Coro degl'Italiani.wav" WAVE
TRACK 26 AUDIO
TITLE "Seconde Veille - Vйnus & les Grвces : La comйdie muette d'Amphitrion : Coro d..."
PERFORMER "Ensemble Correspondances, Sebastien Dauce"
INDEX 01 00:00:00
FILE "27 - Seconde Veille - Venus & les Graces - La comedie muette d'Amphitrion - Recitativo di Cintia.wav" WAVE
TRACK 27 AUDIO
TITLE "Seconde Veille - Vйnus & les Grвces : La comйdie muette d'Amphitrion : Recita..."
PERFORMER "Ensemble Correspondances, Sebastien Dauce"
INDEX 01 00:00:00
FILE "28 - Troisieme Veille - Hercule amoureux - Recit de la Lune.wav" WAVE
TRACK 28 AUDIO
TITLE "Troisiиme Veille - Hercule amoureux : Rйcit de la Lune"
PERFORMER "Ensemble Correspondances, Sebastien Dauce"
INDEX 01 00:00:00
FILE "29 - Troisieme Veille - Hercule amoureux - Entree pour Endimion.wav" WAVE
TRACK 29 AUDIO
TITLE "Troisiиme Veille - Hercule amoureux : Entrйe pour Endimion"
PERFORMER "Ensemble Correspondances, Sebastien Dauce"
INDEX 01 00:00:00
FILE "30 - Troisieme Veille - Hercule amoureux - Entree pour la Lune.wav" WAVE
TRACK 30 AUDIO
TITLE "Troisiиme Veille - Hercule amoureux : Entrйe pour la Lune"
PERFORMER "Ensemble Correspondances, Sebastien Dauce"
INDEX 01 00:00:00
FILE "31 - Troisieme Veille - Hercule amoureux - Recit d'Endimion.wav" WAVE
TRACK 31 AUDIO
TITLE "Troisiиme Veille - Hercule amoureux : Rйcit d'Endimion"
PERFORMER "Ensemble Correspondances, Sebastien Dauce"
INDEX 01 00:00:00
FILE "32 - Troisieme Veille - Hercule amoureux - Entree pour Hercule amoureux.wav" WAVE
TRACK 32 AUDIO
TITLE "Troisiиme Veille - Hercule amoureux : Entrйe pour Hercule amoureux"
PERFORMER "Ensemble Correspondances, Sebastien Dauce"
INDEX 01 00:00:00
FILE "33 - Troisieme Veille - Hercule amoureux - Aria d'Ercole.wav" WAVE
TRACK 33 AUDIO
TITLE "Troisiиme Veille - Hercule amoureux : Aria d'Ercole"
PERFORMER "Ensemble Correspondances, Sebastien Dauce"
INDEX 01 00:00:00
FILE "34 - Troisieme Veille - Hercule amoureux - Recitativo di Dejanira.wav" WAVE
TRACK 34 AUDIO
TITLE "Troisiиme Veille - Hercule amoureux : Recitativo di Dejanira"
PERFORMER "Ensemble Correspondances, Sebastien Dauce"
INDEX 01 00:00:00
FILE "35 - Troisieme Veille - Hercule amoureux - Aria di Dejanira.wav" WAVE
TRACK 35 AUDIO
TITLE "Troisiиme Veille - Hercule amoureux : Aria di Dejanira"
PERFORMER "Ensemble Correspondances, Sebastien Dauce"
INDEX 01 00:00:00

Содержание индексной карты (.CUE) CD 2

REM GENRE Classical
REM DATE 2015
REM DISCID E411F421
REM COMMENT "ExactAudioCopy v1.1"
PERFORMER "Ensemble Correspondances, Sebastien Dauce"
TITLE "Le Concert Royal de la Nuit CD2"
FILE "01 - Troisieme Veille - Hercule amoureux - Le Sabbat - Aria di Venere & delle Grazie.wav" WAVE
TRACK 01 AUDIO
TITLE "Troisiиme Veille - Hercule amoureux : Le Sabbat - Aria di Venere & delle Grazie"
PERFORMER "Ensemble Correspondances, Sebastien Dauce"
INDEX 01 00:00:00
FILE "02 - Troisieme Veille - Hercule amoureux - Le Sabbat - Aria di Giunone.wav" WAVE
TRACK 02 AUDIO
TITLE "Troisiиme Veille - Hercule amoureux : Le Sabbat - Aria di Giunone"
PERFORMER "Ensemble Correspondances, Sebastien Dauce"
INDEX 01 00:00:00
FILE "03 - Troisieme Veille - Hercule amoureux - Le Sabbat - Les Coribantes.wav" WAVE
TRACK 03 AUDIO
TITLE "Troisiиme Veille - Hercule amoureux : Le Sabbat - Les Coribantes"
PERFORMER "Ensemble Correspondances, Sebastien Dauce"
INDEX 01 00:00:00
FILE "04 - Troisieme Veille - Hercule amoureux - Le Sabbat - Huict Ardens.wav" WAVE
TRACK 04 AUDIO
TITLE "Troisiиme Veille - Hercule amoureux : Le Sabbat - Huict Ardens"
PERFORMER "Ensemble Correspondances, Sebastien Dauce"
INDEX 01 00:00:00
FILE "05 - Troisieme Veille - Hercule amoureux - Le Sabbat - Choeur des Sacrificateurs.wav" WAVE
TRACK 05 AUDIO
TITLE "Troisiиme Veille - Hercule amoureux : Le Sabbat - Choeur des Sacrificateurs"
PERFORMER "Ensemble Correspondances, Sebastien Dauce"
INDEX 01 00:00:00
FILE "06 - Troisieme Veille - Hercule amoureux - Le Sabbat - Un grand Homme.wav" WAVE
TRACK 06 AUDIO
TITLE "Troisiиme Veille - Hercule amoureux : Le Sabbat - Un grand Homme"
PERFORMER "Ensemble Correspondances, Sebastien Dauce"
INDEX 01 00:00:00
FILE "07 - Troisieme Veille - Hercule amoureux - Le Sabbat - Une magicienne & quatre vieilles Sorcieres.wav" WAVE
TRACK 07 AUDIO
TITLE "Troisiиme Veille - Hercule amoureux : Le Sabbat - Une magicienne & quatre vie..."
PERFORMER "Ensemble Correspondances, Sebastien Dauce"
INDEX 01 00:00:00
FILE "08 - Troisieme Veille - Hercule amoureux - Le Sabbat - Choeur des Sacrificateurs.wav" WAVE
TRACK 08 AUDIO
TITLE "Troisiиme Veille - Hercule amoureux : Le Sabbat - Choeur des Sacrificateurs"
PERFORMER "Ensemble Correspondances, Sebastien Dauce"
INDEX 01 00:00:00
FILE "09 - Troisieme Veille - Hercule amoureux - Le Sabbat - Trois Curieux.wav" WAVE
TRACK 09 AUDIO
TITLE "Troisiиme Veille - Hercule amoureux : Le Sabbat - Trois Curieux"
PERFORMER "Ensemble Correspondances, Sebastien Dauce"
INDEX 01 00:00:00
FILE "10 - Troisieme Veille - Hercule amoureux - Le Sabbat - Quatre ames errantes.wav" WAVE
TRACK 10 AUDIO
TITLE "Troisiиme Veille - Hercule amoureux : Le Sabbat - Quatre вmes errantes"
PERFORMER "Ensemble Correspondances, Sebastien Dauce"
INDEX 01 00:00:00
FILE "11 - Troisieme Veille - Hercule amoureux - Le Sabbat - Aria di Pasitea.wav" WAVE
TRACK 11 AUDIO
TITLE "Troisiиme Veille - Hercule amoureux : Le Sabbat - Aria di Pasitea"
PERFORMER "Ensemble Correspondances, Sebastien Dauce"
INDEX 01 00:00:00
FILE "12 - Troisieme Veille - Hercule amoureux - Le Sabbat - Coro di Aure & Ruscelli.wav" WAVE
TRACK 12 AUDIO
TITLE "Troisiиme Veille - Hercule amoureux : Le Sabbat - Coro di Aure & Ruscelli"
PERFORMER "Ensemble Correspondances, Sebastien Dauce"
INDEX 01 00:00:00
FILE "13 - Troisieme Veille - Hercule amoureux - Le Sabbat - Dialogo di Pasitea & Giunone.wav" WAVE
TRACK 13 AUDIO
TITLE "Troisiиme Veille - Hercule amoureux : Le Sabbat - Dialogo di Pasitea & Giunone"
PERFORMER "Ensemble Correspondances, Sebastien Dauce"
INDEX 01 00:00:00
FILE "14 - Troisieme Veille - Hercule amoureux - Le Sabbat - Aria di Giunone.wav" WAVE
TRACK 14 AUDIO
TITLE "Troisiиme Veille - Hercule amoureux : Le Sabbat - Aria di Giunone"
PERFORMER "Ensemble Correspondances, Sebastien Dauce"
INDEX 01 00:00:00
FILE "15 - Quatrieme Veille - Orphee - Dialogue du Sommeil & du Silence.wav" WAVE
TRACK 15 AUDIO
TITLE "Quatriиme Veille - Orphйe : Dialogue du Sommeil & du Silence"
PERFORMER "Ensemble Correspondances, Sebastien Dauce"
INDEX 01 00:00:00
FILE "16 - Quatrieme Veille - Orphee - Les Songes - Les quatre Demons.wav" WAVE
TRACK 16 AUDIO
TITLE "Quatriиme Veille - Orphйe : Les Songes - Les quatre Demons"
PERFORMER "Ensemble Correspondances, Sebastien Dauce"
INDEX 01 00:00:00
FILE "17 - Quatrieme Veille - Orphee - Les Songes - Recit des Dieux des Songes.wav" WAVE
TRACK 17 AUDIO
TITLE "Quatriиme Veille - Orphйe : Les Songes - Rйcit des Dieux des Songes"
PERFORMER "Ensemble Correspondances, Sebastien Dauce"
INDEX 01 00:00:00
FILE "18 - Quatrieme Veille - Orphee - Les Songes - L'humeur Melancolique.wav" WAVE
TRACK 18 AUDIO
TITLE "Quatriиme Veille - Orphйe : Les Songes - L'humeur Mйlancolique"
PERFORMER "Ensemble Correspondances, Sebastien Dauce"
INDEX 01 00:00:00
FILE "19 - Quatrieme Veille - Orphee - Les Songes - Dialogue d'Orphee et des Hamadryades.wav" WAVE
TRACK 19 AUDIO
TITLE "Quatriиme Veille - Orphйe : Les Songes - Dialogue d'Orphйe et des Hamadryades"
PERFORMER "Ensemble Correspondances, Sebastien Dauce"
INDEX 01 00:00:00
FILE "20 - Quatrieme Veille - Orphee - Les Songes - Passacaille pour Orphee.wav" WAVE
TRACK 20 AUDIO
TITLE "Quatriиme Veille - Orphйe : Les Songes - Passacaille pour Orphйe"
PERFORMER "Ensemble Correspondances, Sebastien Dauce"
INDEX 01 00:00:00
FILE "21 - Quatrieme Veille - Orphee - Les Songes - Aria d'Euridice.wav" WAVE
TRACK 21 AUDIO
TITLE "Quatriиme Veille - Orphйe : Les Songes - Aria d'Euridice"
PERFORMER "Ensemble Correspondances, Sebastien Dauce"
INDEX 01 00:00:00
FILE "22 - Quatrieme Veille - Orphee - Les Songes - Coro delle Grazie.wav" WAVE
TRACK 22 AUDIO
TITLE "Quatriиme Veille - Orphйe : Les Songes - Coro delle Grazie"
PERFORMER "Ensemble Correspondances, Sebastien Dauce"
INDEX 01 00:00:00
FILE "23 - Quatrieme Veille - Orphee - Les Songes - Coro de Drialdi & Euridice.wav" WAVE
TRACK 23 AUDIO
TITLE "Quatriиme Veille - Orphйe : Les Songes - Coro de Drialdi & Euridice"
PERFORMER "Ensemble Correspondances, Sebastien Dauce"
INDEX 01 00:00:00
FILE "24 - Quatrieme Veille - Orphee - Les Songes - La morte d'Euridice.wav" WAVE
TRACK 24 AUDIO
TITLE "Quatriиme Veille - Orphйe : Les Songes - La morte d'Euridice"
PERFORMER "Ensemble Correspondances, Sebastien Dauce"
INDEX 01 00:00:00
FILE "25 - Quatrieme Veille - Orphee - Les Songes - Coro di Driadi & Apollo.wav" WAVE
TRACK 25 AUDIO
TITLE "Quatriиme Veille - Orphйe : Les Songes - Coro di Driadi & Apollo"
PERFORMER "Ensemble Correspondances, Sebastien Dauce"
INDEX 01 00:00:00
FILE "26 - Quatrieme Veille - Orphee - Les Songes - Fantaisie pour les Pleurs d'Orphee.wav" WAVE
TRACK 26 AUDIO
TITLE "Quatriиme Veille - Orphйe : Les Songes - Fantaisie pour les Pleurs d'Orphйe"
PERFORMER "Ensemble Correspondances, Sebastien Dauce"
INDEX 01 00:00:00
FILE "27 - Grand Ballet - Le Soleil - Recit de l'Aurore - Depuis que j'ouvre l'Orient.wav" WAVE
TRACK 27 AUDIO
TITLE "Grand Ballet - Le Soleil : Rйcit de l'Aurore - Depuis que j'ouvre l'Orient"
PERFORMER "Ensemble Correspondances, Sebastien Dauce"
INDEX 01 00:00:00
FILE "28 - Grand Ballet - Le Soleil - Les Planetes - Entree du Roy representant le Soleil levant.wav" WAVE
TRACK 28 AUDIO
TITLE "Grand Ballet - Le Soleil : Les Planиtes - Entrйe du Roy reprйsentant le Solei..."
PERFORMER "Ensemble Correspondances, Sebastien Dauce"
INDEX 01 00:00:00
FILE "29 - Grand Ballet - Le Soleil - Les Planetes - Coro dei Pianeti.wav" WAVE
TRACK 29 AUDIO
TITLE "Grand Ballet - Le Soleil : Les Planиtes - Coro dei Pianeti"
PERFORMER "Ensemble Correspondances, Sebastien Dauce"
INDEX 01 00:00:00
FILE "30 - Grand Ballet - Le Soleil - Les Planetes - Duo d'Ercole & la Bellezza.wav" WAVE
TRACK 30 AUDIO
TITLE "Grand Ballet - Le Soleil : Les Planиtes - Duo d'Ercole & la Bellezza"
PERFORMER "Ensemble Correspondances, Sebastien Dauce"
INDEX 01 00:00:00
FILE "31 - Grand Ballet - Le Soleil - Les Planetes - Coro dei Pianeti.wav" WAVE
TRACK 31 AUDIO
TITLE "Grand Ballet - Le Soleil : Les Planиtes - Coro dei Pianeti"
PERFORMER "Ensemble Correspondances, Sebastien Dauce"
INDEX 01 00:00:00
FILE "32 - Grand Ballet - Le Soleil - Les Planetes - Libertas.wav" WAVE
TRACK 32 AUDIO
TITLE "Grand Ballet - Le Soleil : Les Planиtes - Libertas"
PERFORMER "Ensemble Correspondances, Sebastien Dauce"
INDEX 01 00:00:00
FILE "33 - Grand Ballet - Le Soleil - Les Planetes - Tutti.wav" WAVE
TRACK 33 AUDIO
TITLE "Grand Ballet - Le Soleil : Les Planиtes - Tutti"
PERFORMER "Ensemble Correspondances, Sebastien Dauce"
INDEX 01 00:00:00

Треклист

CD1
1 | Ouverture 3’05
Première Veille | la Nuit
2 | Récit de la Nuit : Languissante clarté, cachez-vous dessous l’onde (JC) 3’24
3 | Récit des Heures : Vous poussez le Soleil à bout (JC) 1’42
4 | Récit de la Nuit : Je descends pour charmer ses yeux et ses oreilles (JC) 3’21
5 | Récit des Heures : Tenez donc vos rideaux tirez (JC) 1’22
6 | Entrée pour les Quatre heures - 2e air pour les mesmes 2’25
7 | Six Chasseurs - 2e air pour les mesmes 1’13
8 | Deux Bergers & deux Bergères - Quatre Païsans 1’33
9 | [Un Mercier et] deux Bandits - Air pour les mesmes en Carosse 1’07
10 | Deux Galands & deux Coquettes 2’22
11 | Récit de Mnémosyne : Quelles beautés, ô mortels (AB) 3’26
La Cour des Miracles
12 | Egyptiens et Egyptiennes 1’38
13 | Les Boutiques se ferment 0’57
14 | Porteurs de chaises portant deux Bourgeoises 2’30
Les mesmes Bourgeoises sont attaquées par des Filous - Deux Filoux
Seconde Veille | Vénus & les Grâces
15 | Entrée des Ombres (LC) 1’43
16 | Entrée des Parques, de la Vieillesse & de la Tristesse 1’19
17 | Récit de Vénus : Fuyez bien loin, ennemis de la joye 3’27
18 | 1er air pour les Jeux, les Ris, l’Hymen & le Dieu Comus - Deux Pages 2’25
Roger, Bradamante & toute la compagnie
19 | Air pour les Grâces 1’19
20 | Dialogue des trois Grâces : Admirons notre jeune et charmante déesse (ML) 3’28
Air pour les Grâces
21 | Les Nopces de Thétis, “Ballet en Ballet” - La Discorde 2’32
La comédie muette d’Amphitrion
22 | Première entrée représentant le Premier Acte - 2e air pour Sosie 1’32
23 | [Seconde entrée représentant le] Deuxième Acte
[Troisième entrée représentant le] Troisième Acte
[Quatrième entrée représentant le] Quatrième & dernier Acte
[Amphitrion revient de son voyage] 4’02
24 | Quatre petites Espagnolles et un Espagnol 1’10
25 | Sarabande pour une Espagnolle [suivie des Italiens] 1’11
26 | Coro degl’Italiani : Qual concorso indovino 2’09
Recitativo di Cintia : Ed ecco, o Gallia invitta
Coro degl’Italiani : Dopo belliche noie (FC)
27 | Recitativo di Cintia : Ma voi che piu tardate, inclite Dee? 2’12
Coro degl’Italiani : O Gallia fortunata! (FC)
Troisième Veille | Hercule amoureux
28 | Récit de la Lune : Moy dont les froideurs sont cognuës (JC) 5’18
29 | Entrée pour Endimion 1’23
30 | Entrée pour la Lune 1’02
31 | Récit d’Endimion : Noires forests, demeures sombres (AB) 3’09
32 | Entrée pour Hercule amoureux 1’01
33 | Aria d’Ercole : Come si beffa Amor, del poter mio! (FC) 1’11
34 | Recitativo di Dejanira : Misera, ohimè, ch’ascolto? (FC) 2’02
35 | Aria di Dejanira : Ahi, ch’amarezza (FC) 3’25
CD2
Le Sabbat
1 | Aria di Venere & delle Grazie : Se ninfa ai pianti (FC) 4’44
2 | Aria di Giunone : E vuol dunque Ciprigna (FC) 4’48
3 | Les Coribantes - Air pour les mesmes 1’01
4 | Huict Ardens - 2e air pour les mesmes 1’15
5 | Choeur des Sacrificateurs : Gradisci, ô Rè (FC) 1’15
6 | Un grand Homme - Quatre Monstres nains 2’15
7 | Une Magicienne & quatres vieilles Sorcières - Six Loups-garoux 2’17
8 | Choeur des Sacrificateurs : Gradisci, ô Rè (FC) 1’15
9 | Trois Curieux - 2e air pour les mesmes - Des Hommes demy nuds 1’13
10 | Quatre Âmes errantes : Dall’Occaso a gl’Eoi (FC) 1’47
11 | Aria di Pasitea : Mormorate (FC) 1’42
12 | Coro di Aure & Ruscelli : Dormi, dormi, o Sonno, dormi (FC) 3’47
13 | Dialogo di Pasitea & Giunone : O Dea, sublime Dea 2’27
Simphonie du Sommeil (FC)
14 | Aria di Giunone : Vanne, e poiché spedita al Ciel’io torno (FC) 0’53
Simphonie pour l’envol de Junon
Quatrième Veille | Orphée
15 | Dialogue du Sommeil & du Silence (JC) 3’53
Les Songes
16 | Les quatre Demons du Feu, de l’Air, de l’Eau & de la Terre 2’58
Les Songes furieux - Le combat des Songes - Le Songe du Flegmatique
17 | Récit des Dieux des Songes : Quelle merveilleuse advanture ? (AB) 3’28
18 | L’humeur Mélancolique 1’14
19 | Dialogue d’Orphée et des Hamadryades : Suivez-nous (AB) 2’29
20 | Passacaille pour Orphée (LR) 2’02
21 | Aria d’Euridice : Che puó far Citerea (LR) 1’42
22 | Coro delle Grazie : Dormite, begl’occhi, dormite (LR) 2’26
23 | Coro de Driadi & Euridice : Ma che, son qui le Driadi (LR) 1’42
24 | La morte d’Euridice : Ohimè, Nutrice, io moro! (LR) 3’42
25 | Coro di Driadi & Apollo : Ah, piangete! (LR) 5’49
26 | Fantaisie pour les Pleurs d’Orphée (LR) 3’05
Grand Ballet | Le Soleil
27 | Récit de l’Aurore : Depuis que j’ouvre l’Orient (JC) 2’29
Les Planètes
28 | Entrée du Roy représentant le Soleil levant - Entrée des Génies 2’38
29 | Coro dei Pianeti : Quel grande Eroe (FC) 1’28
30 | Duo d’Ercole & la Bellezza : Cosí un giorno avverrà con più diletto (FC) 0’47
31 | Coro dei Pianeti : Virtù che soffre (FC) 1’03
32 | Libertas (An.) 0’47
33 | Tutti : All’impero d’Amore (An.) 2’00



Показать сообщения:    

Текущее время: 03-Дек 12:41

Часовой пояс: UTC + 3


Вы не можете начинать темы
Вы не можете отвечать на сообщения
Вы не можете редактировать свои сообщения
Вы не можете удалять свои сообщения
Вы не можете голосовать в опросах
Вы не можете прикреплять файлы к сообщениям
Вы не можете скачивать файлы