"Послушайте!" Поэты Серебряного века (Ольга Тутушкина) [2015 г., Литературно-музыкальная композиция, SATRip] Московский международный Дом музыки


Статистика раздачи [Обновить пиров]
Размер:  1.16 GB   |    Зарегистрирован:  8 месяцев 19 дней   |    Скачан:  1 раз

Полного источника не было: 3 месяца 3 дня

 
   
 
 
 

[Цитировать]

"Послушайте!" Поэты Серебряного века Московский международный Дом музыки.
Год выпуска: 2015.
Жанр: Литературно-музыкальная композиция.
Продолжительность: 01:25:53.
Автор и ведущий вечера: Вениамин Смехов.
Стихи звучат в исполнении:
Анатолия Белого, Николая Чиндяйкина, Карэна Бадалова, Саида Багова, Лики Нифонтовой, Марии Матвеевой, Веры Воронковой, Алики Смеховой.
Описание:
Стихи Андрея Белого, Александра Блока, Зинаиды Гиппиус, Сергея Есенина, Анны Ахматовой, Марины Цветаевой, Осипа Мандельштама, Велимира Хлебникова, Владислава Ходасевича, Иннокентия Анненского, Владимира Маяковского, Игоря Северянина, Саши Черного, Давида Бурлюка, Александра Измайлова, Константина Бальмонта, Николая Гумилева, Вячеслава Иванова, Бориса Пастернака, Владимира Набокова, Бориса Поплавского звучат в исполнении известных артистов.
В программе
  • Александр Блок
    "Соловьиный сад"; "Девушка пела в церковном хоре..."; "Двенадцать"; "О доблестях, о подвигах, о славе..."; "Ты помнишь? В нашей бухте сонной..."; "В ресторане"
  • Афанасий Фет
    "Шёпот, робкое дыханье..."
  • Андрей Белый
    "А. А. Блоку"
  • Зинаида Гиппиус
    "Апельсинные цветы"; "И я такая добрая..."
  • Александр Измайлов
    "Углем круги начерчу..."
  • Константин Бальмонт
    "Я ненавижу человечество..."
  • Николай Гумилёв
    "Зараза"; "Она"; "Я и Вы"; "Памяти Анненского"
  • Анна Ахматова
    "Он любил"; "В ремешках пенал и книги были..."; "А ты думал - я тоже такая..."; "Столько просьб у любимой всегда!..."; "Я поднимаю трубку - я называю имя..."; "Двадцать первое. Ночь. Понедельник..."; "Маяковский в 1913 году"
  • Вячеслав Иванов
    "Великое бессмертья хочет..."
  • Иннокентий Анненский
    "В дороге"; "Колокольчики"
  • Владислав Ходасевич
    "Перед зеркалом"; "Люблю людей, люблю природу..."
  • Велимир Хлебников
    "Там, где жили свиристели..."; "Заклятие смехом"; "Кузнечик"
  • Борис Пастернак
    "Карусель"
  • Марина Цветаева
    "Безнадежно взрослый Вы?.."; "Моим стихам, написанным так рано..."; "Бабушке"
  • Осип Мандельштам
    "Калоша"; "Дайте Тютчеву стрекозу..."; "Горец"; "Только детские книги читать..."; "За гремучую доблесть грядущих веков..."; "Бессонница. Гомер. Тугие паруса..."; "Ода"
  • Саша Чёрный
    "Живая азбука"; "Переутомление"; "Коктебель"; "Китеж"; "Рождение футуризма"; "Обстановочка"
  • Владимир Набоков
    "Билет"; "Расстрел"
  • Владимир Маяковский
    "Приказ по армии искусства"; "Человек"; "Облако в штанах"; "Тамара и Демон"
  • Борис Поплавский
    "За стеною жизни ходит осень..."; "Друзья мои, природа хочет..."
  • Игорь Северянин
    "Рескрипт короля"; "Она критикует"; "Крашеные"; "Восторженная поэза"; "Интродукция"
  • Сергей Есенин
    "Ты меня не любишь, не жалеешь..."
  • Давид Бурлюк
    "Каждый молод, молод, молод..."
  • Фрагменты текстов Владимира Маяковского, Александра Блока, Николая Гумилёва, Евгения Евтушенко, Анна Ахматовой, Марины Цветаевой, Владимира Набокова, Лили Брик, Николая Бердяева, Владимира Варшавского, Надежды Мандельштам.
    Дополнительная информация:
    Страна: Россия .
    Выпущено: © ГТРК "Культура".
    Режиссёр телеверсии: Ольга Тутушкина.
    Оператор-постановщик: Владимир Иванов.
    Художник по свету: Андрей Романов.
    В передаче использована музыка Жака Оффенбаха, Вольфганга-Амадея Моцарта, Осипа Козловского, Saint-Preux.
    В декорациях сцены использованы живописные работы Михаила Врубеля, Виктора Борисова-Мусатова, Льва Бакста, Валентина Серова, Константина Сомова, Сергея Судейкина, Юрия Анненкова, Натана Альтмана, Аристарха Лентулова, Валентины Ходасевич, Давида Бурлюка, Казимира Малевича, Михаила Ларионова, Мстислава Добужинского, Льва Бруни, Кузьмы Петрова-Водкина, Александра Головина,
    Константина Коровина, Василия Кандинского, Вадима Фалилеева, Пауля Клее.

    Трансляция ГТРК "Культура" в 22:20 15.11.2015 г.
    Релиз
    Рип lesik689.

    Качество видео:...SATRip
    Формат:.................AVI
    Видео:..704x400 (1.76:1), 25 fps, XviD build 73 ~1799 kbps avg, 0.26 bit/pixel
    Аудио:..48 kHz, MPEG Layer 3, 2 ch, ~128.00 kbps avg

    Отчет MI

    General
    Complete name : Poslushajte.Poety.Serebryanogo.veka.2015.XviD.SATRip.fenixclub.avi
    Format : AVI
    Format/Info : Audio Video Interleave
    File size : 1.16 GiB
    Duration : 1h 25mn
    Overall bit rate : 1 938 Kbps
    Video
    ID : 0
    Format : MPEG-4 Visual
    Format profile : Advanced Simple@L5
    Format settings, BVOP : 2
    Format settings, QPel : No
    Format settings, GMC : No warppoints
    Format settings, Matrix : Default (MPEG)
    Codec ID : XVID
    Codec ID/Hint : XviD
    Duration : 1h 25mn
    Bit rate : 1 800 Kbps
    Width : 704 pixels
    Height : 400 pixels
    Display aspect ratio : 16:9
    Frame rate : 25.000 fps
    Color space : YUV
    Chroma subsampling : 4:2:0
    Bit depth : 8 bits
    Scan type : Progressive
    Compression mode : Lossy
    Bits/(Pixel*Frame) : 0.256
    Stream size : 1.08 GiB (93%)
    Writing library : XviD 73
    Audio
    ID : 1
    Format : MPEG Audio
    Format version : Version 1
    Format profile : Layer 3
    Mode : Joint stereo
    Mode extension : MS Stereo
    Codec ID : 55
    Codec ID/Hint : MP3
    Duration : 1h 25mn
    Bit rate mode : Constant
    Bit rate : 128 Kbps
    Channel(s) : 2 channels
    Sampling rate : 48.0 KHz
    Compression mode : Lossy
    Stream size : 78.6 MiB (7%)
    Alignment : Split accross interleaves
    Interleave, duration : 40 ms (1.00 video frame)
    Interleave, preload duratio : 500 ms.

    Скриншоты


    Альтернативный хост


    [teatrix.ru].t22665.torrent 
    Торрент: Зарегистрирован [ 2016-03-21 00:51 ] · FAE88CAEE8C086524FAF3F66271117C701B228D4

    Скачать .torrent

    Скачать

    12 KB

    Статус: проверено
    Скачан: 1 раз
    Размер: 1.16 GB
    terms.php



  • Быстрый ответ

    Имя:

          
    Для отправки сообщений необходимо включить JavaScript
    Показать сообщения:    

    Текущее время: 09-Дек 20:32

    Часовой пояс: UTC + 3


    Вы можете начинать темы
    Вы можете отвечать на сообщения
    Вы не можете редактировать свои сообщения
    Вы не можете удалять свои сообщения
    Вы не можете голосовать в опросах
    Вы не можете прикреплять файлы к сообщениям
    Вы можете скачивать файлы