"Послушайте!" Поэты войны (Ольга Тутушкина) [2015 г., Литературно-музыкальная композиция, SATRip] Московский международный Дом музыки


Статистика раздачи [Обновить пиров]
Размер:  1.07 GB   |    Зарегистрирован:  8 месяцев 21 день   |    Скачан:  0 раз

Полного источника не было: Никогда

 
   
 
 
 

[Цитировать]

"Послушайте!" Поэты войны Московский международный Дом музыки.
Год выпуска: 2015.
Жанр: Литературно-музыкальная композиция.
Продолжительность: 01:19:06.
Автор и ведущий вечера: Вениамин Смехов.
Стихи звучат в исполнении:
Анатолия Белого, Алексея Верткова, Николая Чиндяйкина, Ирины Апексимовой, Саида Багова, Дмитрия Высоцкого, Александры Урсуляк, Ольги Лерман.
Описание:
Программа "Поэты войны" посвящена авторам, участвовавшим в Великой Отечественной войне.
Они были мальчишками, ушедшими на фронт из школы и первых курсов институтов, а взрослеть им пришлось в боях... Те, кто выжили, несли бремя горькой памяти о "красивых двадцатидвухлетних" братьях, опекали их стихи и измеряли войной и победой мирную жизнь.

В программе
  • Стихи
    Бориса Слуцкого, Михаила Кульчицкого, Николая Оболенского, Евгения Долматовского, Анны Ахматовой, Михаила Исаковского, Наума Лабковского, Бориса Ласкина, Евгения Винокурова, Булата Окуджавы, Семёна Гудзенко, Галины Шерговой, Юлии Друниной, Константина Симонова, Сергея Орлова, Александра Твардовского, Давида Самойлова, Михаила Дудина, Ольги Берггольц, Александра Межирова, Евгения Евтушенко, Владимира Высоцкого, Александра Галича, Александра Чуркина, Иона Дегена, Алексея Фатьянова, Юрия Левитанского;
  • Фрагменты текстов Владимира Высоцкого, Константина Рокоссовского, Андрея Эшпая, Ольги Берггольц, Евгения Евтушенко, Ивана Тургенева.
    Дополнительная информация:
    Страна: Россия .
    Выпущено: © ГТРК "Культура".
    Режиссёр телеверсии: Ольга Тутушкина.
    Оператор-постановщик: Владимир Иванов.
    Художник по свету: Андрей Романов.
    В передаче использована музыка Жака Оффенбаха, Вольфганга-Амадея Моцарта, Осипа Козловского, Saint-Preux.
    В декорациях сцены использованы живописные работы Михаила Врубеля, Виктора Борисова-Мусатова, Льва Бакста, Валентина Серова, Константина Сомова, Сергея Судейкина, Юрия Анненкова, Натана Альтмана, Аристарха Лентулова, Валентины Ходасевич, Давида Бурлюка, Казимира Малевича, Михаила Ларионова, Мстислава Добужинского, Льва Бруни, Кузьмы Петрова-Водкина, Александра Головина,
    Константина Коровина, Василия Кандинского, Вадима Фалилеева, Пауля Клее.

    Трансляция ГТРК "Культура" в 22:00 22.11.2015 г.
    Релиз
    Рип lesik689.

    Качество видео:...SATRip
    Формат:.................AVI
    Видео:..704x400 (1.76:1), 25 fps, XviD MPEG-4 ~1801 kbps avg, 0.26 bit/pixel
    Аудио:..48 kHz, MPEG Layer 3, 2 ch, ~128.00 kbps avg

    Отчет MI

    General
    Complete name : Poslushajte.Poety.vojny.2015.XviD.SATRip.fenixclub.avi
    Format : AVI
    Format/Info : Audio Video Interleave
    File size : 1.07 GiB
    Duration : 1h 19mn
    Overall bit rate : 1 939 Kbps
    Writing application : VirtualDubMod 1.5.10.2 (build 2542/release)
    Writing library : VirtualDubMod build 2542/release
    Video
    ID : 0
    Format : MPEG-4 Visual
    Format profile : Advanced Simple@L5
    Format settings, BVOP : 2
    Format settings, QPel : No
    Format settings, GMC : No warppoints
    Format settings, Matrix : Default (MPEG)
    Codec ID : XVID
    Codec ID/Hint : XviD
    Duration : 1h 19mn
    Bit rate : 1 801 Kbps
    Width : 704 pixels
    Height : 400 pixels
    Display aspect ratio : 5:4
    Original display aspect rat : 16:9
    Frame rate : 25.000 fps
    Color space : YUV
    Chroma subsampling : 4:2:0
    Bit depth : 8 bits
    Scan type : Progressive
    Compression mode : Lossy
    Bits/(Pixel*Frame) : 0.256
    Stream size : 1 019 MiB (93%)
    Writing library : XviD 73
    Audio
    ID : 1
    Format : MPEG Audio
    Format version : Version 1
    Format profile : Layer 3
    Mode : Joint stereo
    Mode extension : MS Stereo
    Codec ID : 55
    Codec ID/Hint : MP3
    Duration : 1h 19mn
    Bit rate mode : Constant
    Bit rate : 128 Kbps
    Channel(s) : 2 channels
    Sampling rate : 48.0 KHz
    Compression mode : Lossy
    Stream size : 72.4 MiB (7%)
    Alignment : Split accross interleaves
    Interleave, duration : 40 ms (0.99 video frame)
    Interleave, preload duratio : 500 ms.

    Скриншоты


    Альтернативный хост


    [teatrix.ru].t22670.torrent 
    Торрент: Зарегистрирован [ 2016-03-21 00:46 ] · ACAF0F282B2F5DB584301E105254C52A45932CD6

    Скачать .torrent

    Скачать

    11 KB

    Статус: проверено
    Скачан: 0 раз
    Размер: 1.07 GB
    terms.php



  • Быстрый ответ

    Имя:

          
    Для отправки сообщений необходимо включить JavaScript
    Показать сообщения:    

    Текущее время: 11-Дек 16:54

    Часовой пояс: UTC + 3


    Вы можете начинать темы
    Вы можете отвечать на сообщения
    Вы не можете редактировать свои сообщения
    Вы не можете удалять свои сообщения
    Вы не можете голосовать в опросах
    Вы не можете прикреплять файлы к сообщениям
    Вы можете скачивать файлы