(Classical) Antonio Vivaldi - La Cetra: 12 Violin Concertos, Op.9 - Rachel Podger, Holland Baroque Society - 2012, FLAC (image+.cue) lossless


Статистика раздачи [Обновить пиров]
Размер:  583 MB   |    Зарегистрирован:  8 месяцев 17 дней   |    Скачан:  1 раз

Полного источника не было: 1 месяц 4 дня

 
   
 
 
 

[Цитировать]

Antonio Vivaldi - La Cetra: 12 Violin Concertos, Op.9 - Rachel Podger, Holland Baroque Society
Жанр: Classical
Страна-производитель диска: Holland
Год издания диска: 2012
Издатель (лейбл): Channel Classics
Номер по каталогу: CCS SA 33412
Дата записи: 2011, 2012
Аудиокодек: FLAC
Тип рипа: image+.cue
Битрейт аудио: lossless
Продолжительность: 117:25
Источник: собственный рип
Наличие сканов в содержимом раздачи: да
Треклист:
Antonio Vivaldi
La Cetra
12 Violin Concertos, Opus 9
CD1
[1]-[3] Concerto No.1 in C major, Rv 181a
[4]-[6] Concerto No.2 in A major, Rv 345
[7]-[9] Concerto No.3 in G minor, Rv 334
[10]-[12] Concerto No.4 in E major, Rv 263a
[13]-[15] Concerto No.5 in A minor, Rv 358
[16]-[18] Concerto No.6 in A major, Rv 348
CD2
[1]-[3] Concerto No.7 in B flat major, Rv 359
[4]-[6] Concerto No.8 in D minor, Rv 238
[7]-[9] Concerto No.9 in B flat major, Rv 530
[10]-[12] Concerto No.10 in G major, Rv 300
[13]-[15] Concerto No.11 in C minor, Rv 198a
[16]-[18] Concerto No.12 in B minor, Rv 391
Исполнители:
Rachel Podger violin
Holland Baroque Society

Лог создания рипа: CD1

Exact Audio Copy V1.1 from 23. June 2015
EAC extraction logfile from 28. November 2015, 1:38
Rachel Podger, Holland Baroque Society / Vivaldi - La Cetra - CD1
Used drive : HL-DT-STDVDRAM GU70N Adapter: 1 ID: 0
Read mode : Secure
Utilize accurate stream : Yes
Defeat audio cache : Yes
Make use of C2 pointers : No
Read offset correction : 48
Overread into Lead-In and Lead-Out : No
Fill up missing offset samples with silence : Yes
Delete leading and trailing silent blocks : No
Null samples used in CRC calculations : Yes
Used interface : Native Win32 interface for Win NT & 2000
Used output format : User Defined Encoder
Selected bitrate : 128 kBit/s
Quality : High
Add ID3 tag : No
Command line compressor : C:\Program Files (x86)\Exact Audio Copy\Flac\flac.exe
Additional command line options : -V -8 -T "Date=%year%" -T "Genre=%genre%" %source%
TOC of the extracted CD
Track | Start | Length | Start sector | End sector
---------------------------------------------------------
1 | 0:00.00 | 3:46.09 | 0 | 16958
2 | 3:46.09 | 3:26.30 | 16959 | 32438
3 | 7:12.39 | 2:39.63 | 32439 | 44426
4 | 9:52.27 | 4:05.65 | 44427 | 62866
5 | 13:58.17 | 2:06.35 | 62867 | 72351
6 | 16:04.52 | 3:05.27 | 72352 | 86253
7 | 19:10.04 | 3:52.45 | 86254 | 103698
8 | 23:02.49 | 3:19.30 | 103699 | 118653
9 | 26:22.04 | 3:23.08 | 118654 | 133886
10 | 29:45.12 | 4:30.35 | 133887 | 154171
11 | 34:15.47 | 2:42.40 | 154172 | 166361
12 | 36:58.12 | 3:37.07 | 166362 | 182643
13 | 40:35.19 | 2:43.60 | 182644 | 194928
14 | 43:19.04 | 2:19.13 | 194929 | 205366
15 | 45:38.17 | 3:15.45 | 205367 | 220036
16 | 48:53.62 | 3:56.27 | 220037 | 237763
17 | 52:50.14 | 3:06.70 | 237764 | 251783
18 | 55:57.09 | 4:28.45 | 251784 | 271928
Range status and errors
Selected range
Filename C:\temp\CCS SA 33412 Vivaldi - La Cetra - Rachel Podger, Holland Baroque Society\CD1\Vivaldi - La Cetra - CD1.wav
Peak level 100.0 %
Extraction speed 2.1 X
Range quality 100.0 %
Test CRC B9D2CB3E
Copy CRC B9D2CB3E
Copy OK
No errors occurred
AccurateRip summary
Track 1 accurately ripped (confidence 69) [BD21777D] (AR v2)
Track 2 accurately ripped (confidence 67) [3F889F87] (AR v2)
Track 3 accurately ripped (confidence 67) [49BC0261] (AR v2)
Track 4 accurately ripped (confidence 67) [95BEF2F2] (AR v2)
Track 5 accurately ripped (confidence 67) [67DA6D4B] (AR v2)
Track 6 accurately ripped (confidence 67) [3D5125D0] (AR v2)
Track 7 accurately ripped (confidence 67) [4000F341] (AR v2)
Track 8 accurately ripped (confidence 66) [8FA19448] (AR v2)
Track 9 accurately ripped (confidence 67) [BC2CD1DF] (AR v2)
Track 10 accurately ripped (confidence 67) [0FE9E832] (AR v2)
Track 11 accurately ripped (confidence 67) [DFB02FE1] (AR v2)
Track 12 accurately ripped (confidence 67) [E8209EB9] (AR v2)
Track 13 accurately ripped (confidence 67) [47AA73BA] (AR v2)
Track 14 accurately ripped (confidence 67) [9C6231A8] (AR v2)
Track 15 accurately ripped (confidence 67) [744972AB] (AR v2)
Track 16 accurately ripped (confidence 67) [A24FA62E] (AR v2)
Track 17 accurately ripped (confidence 67) [82CB6803] (AR v2)
Track 18 accurately ripped (confidence 67) [E090321B] (AR v2)
All tracks accurately ripped
End of status report
==== Log checksum AAA88D50116E840A8A6AA18EF8F2FBE729F88D18F18728456C6BC1FFD4C9F772 ====

Лог создания рипа: CD2

Exact Audio Copy V1.1 from 23. June 2015
EAC extraction logfile from 28. November 2015, 0:19
Rachel Podger, Holland Baroque Society / Vivaldi - La Cetra - CD2
Used drive : HL-DT-STDVDRAM GU70N Adapter: 1 ID: 0
Read mode : Secure
Utilize accurate stream : Yes
Defeat audio cache : Yes
Make use of C2 pointers : No
Read offset correction : 48
Overread into Lead-In and Lead-Out : No
Fill up missing offset samples with silence : Yes
Delete leading and trailing silent blocks : No
Null samples used in CRC calculations : Yes
Used interface : Native Win32 interface for Win NT & 2000
Used output format : User Defined Encoder
Selected bitrate : 128 kBit/s
Quality : High
Add ID3 tag : No
Command line compressor : C:\Program Files (x86)\Exact Audio Copy\Flac\flac.exe
Additional command line options : -V -8 -T "Date=%year%" -T "Genre=%genre%" %source%
TOC of the extracted CD
Track | Start | Length | Start sector | End sector
---------------------------------------------------------
1 | 0:00.00 | 3:00.56 | 0 | 13555
2 | 3:00.56 | 2:14.59 | 13556 | 23664
3 | 5:15.40 | 2:56.55 | 23665 | 36919
4 | 8:12.20 | 3:49.15 | 36920 | 54109
5 | 12:01.35 | 2:45.70 | 54110 | 66554
6 | 14:47.30 | 2:47.15 | 66555 | 79094
7 | 17:34.45 | 3:24.33 | 79095 | 94427
8 | 20:59.03 | 3:02.10 | 94428 | 108087
9 | 24:01.13 | 2:46.01 | 108088 | 120538
10 | 26:47.14 | 3:37.24 | 120539 | 136837
11 | 30:24.38 | 2:25.74 | 136838 | 147786
12 | 32:50.37 | 3:03.23 | 147787 | 161534
13 | 35:53.60 | 4:17.28 | 161535 | 180837
14 | 40:11.13 | 2:13.50 | 180838 | 190862
15 | 42:24.63 | 3:13.02 | 190863 | 205339
16 | 45:37.65 | 4:59.44 | 205340 | 227808
17 | 50:37.34 | 2:18.51 | 227809 | 238209
18 | 52:56.10 | 3:59.34 | 238210 | 256168
Range status and errors
Selected range
Filename C:\temp\CCS SA 33412 Vivaldi - La Cetra - Rachel Podger, Holland Baroque Society\CD2\Vivaldi - La Cetra - CD2.wav
Peak level 100.0 %
Extraction speed 5.0 X
Range quality 99.9 %
Test CRC 08E8CFF0
Copy CRC 08E8CFF0
Copy OK
No errors occurred
AccurateRip summary
Track 1 accurately ripped (confidence 63) [935173C5] (AR v2)
Track 2 accurately ripped (confidence 63) [D9D65DC5] (AR v2)
Track 3 accurately ripped (confidence 63) [5BA89DD5] (AR v2)
Track 4 accurately ripped (confidence 63) [A5CFCA02] (AR v2)
Track 5 accurately ripped (confidence 63) [B3CF58B2] (AR v2)
Track 6 accurately ripped (confidence 63) [37099635] (AR v2)
Track 7 accurately ripped (confidence 63) [27EC8743] (AR v2)
Track 8 accurately ripped (confidence 63) [94C695A7] (AR v2)
Track 9 accurately ripped (confidence 63) [4633F568] (AR v2)
Track 10 accurately ripped (confidence 63) [196CF00F] (AR v2)
Track 11 accurately ripped (confidence 63) [F05798C1] (AR v2)
Track 12 accurately ripped (confidence 63) [DAD75B3D] (AR v2)
Track 13 accurately ripped (confidence 63) [7F7CE273] (AR v2)
Track 14 accurately ripped (confidence 63) [6BF6F719] (AR v2)
Track 15 accurately ripped (confidence 63) [7C6C8ABC] (AR v2)
Track 16 accurately ripped (confidence 63) [2613E677] (AR v2)
Track 17 accurately ripped (confidence 63) [0A182283] (AR v2)
Track 18 accurately ripped (confidence 64) [CE2703D6] (AR v2)
All tracks accurately ripped
End of status report
==== Log checksum 19FB1FCCCC46C4AD30BE169F3ABAA5001668291EF89F012198D09BDC466927AB ====
[teatrix.ru].t22672.torrent 
Торрент: Зарегистрирован [ 2016-03-21 00:45 ] · D34C04E4395B7A48F8F0714BC738739420DDF9DA

Скачать .torrent

Скачать

24 KB

Статус: проверено
Скачан: 1 раз
Размер: 583 MB
terms.php



Быстрый ответ

Имя:

      
Для отправки сообщений необходимо включить JavaScript
Показать сообщения:    

Текущее время: 07-Дек 15:33

Часовой пояс: UTC + 3


Вы можете начинать темы
Вы можете отвечать на сообщения
Вы не можете редактировать свои сообщения
Вы не можете удалять свои сообщения
Вы не можете голосовать в опросах
Вы не можете прикреплять файлы к сообщениям
Вы можете скачивать файлы