Короткие встречи (Кира Муратова) [1967, мелодрама, DVB, AVC]


Статистика раздачи [Обновить пиров]
Размер:  1.66 GB   |    Зарегистрирован:  8 месяцев 16 дней   |    Скачан:  1 раз

Полного источника не было: 5 дней

 
   
 
 
 

[Цитировать]

Короткие встречи
Жанр: мелодрама
Год выпуска: 1967
Продолжительность: 01:31:32
Режиссёр: Кира Муратова
В ролях: Кира Муратова, Нина Русланова, Владимир Высоцкий, Александр Глазырин, Светлана Немоляева
Описание: Покинув родное село, Надя вместе с подругой едет в большой город. По пути девушка устраивается на работу в чайную и знакомится с Максимом - молодым геологом, человеком талантливым и образованным...
В общем, он обладал всеми достоинствами, которые необходимы в подобных ситуациях, но... у него была любимая женщина, которая жила в городе и ждала его в своем доме. В этот самый дом и приезжает влюбленная, разыскивающая Максима Надя. Так случилось, что Валентина Ивановна радушно приняла девушку и предложила ей остаться, присматривать за хозяйством - сама она занимает довольно высокий пост в администрации города, работу свою любит и отдает ей очень много сил и времени. Долго и внимательно вникала Надя в довольно странные отношения между супругами и наконец поняла, что она не имеет права вмешиваться в чужую жизнь...
Семпл: http://multi-up.com/1077704
Качество видео: DVB-AVC
Формат видео: MKV
Видео: H.264/AVC, 720x576, 1.33:1, 25.00fps, 2354 Kbps
Аудио: MP2 2.0, 48 kHz, 192 kbps

MediaInfo

General
Unique ID : 196305250533443141193825086924265356922 (0x93AF041A2ACD0F6DB05CF38D992BFE7A)
Complete name : Короткие встречи.mkv
Format : Matroska
Format version : Version 4 / Version 2
File size : 1.66 GiB
Duration : 1h 31mn
Overall bit rate : 2 598 Kbps
Encoded date : UTC 2015-12-03 07:28:25
Writing application : mkvmerge v8.1.0 ('Psychedelic Postcard') 64bit
Writing library : libebml v1.3.1 + libmatroska v1.4.2
Video
ID : 1
Format : AVC
Format/Info : Advanced Video Codec
Format profile : High@L3.0
Format settings, CABAC : Yes
Format settings, ReFrames : 4 frames
Format settings, GOP : M=4, N=24
Codec ID : V_MPEG4/ISO/AVC
Duration : 1h 31mn
Bit rate : 2 354 Kbps
Width : 720 pixels
Height : 576 pixels
Display aspect ratio : 4:3
Original display aspect ratio : 4:3
Frame rate mode : Constant
Frame rate : 25.000 fps
Standard : Component
Color space : YUV
Chroma subsampling : 4:2:0
Bit depth : 8 bits
Scan type : Interlaced
Scan order : Top Field First
Bits/(Pixel*Frame) : 0.227
Stream size : 1.51 GiB (91%)
Default : Yes
Forced : No
Color primaries : BT.601 PAL
Transfer characteristics : BT.470 System B, BT.470 System G
Matrix coefficients : BT.601
Color range : Limited
DURATION : 01:31:32.880000000
NUMBER_OF_FRAMES : 137322
NUMBER_OF_BYTES : 1650221933
_STATISTICS_WRITING_APP : mkvmerge v8.1.0 ('Psychedelic Postcard') 64bit
_STATISTICS_WRITING_DATE_UTC : 2015-12-03 07:28:25
_STATISTICS_TAGS : BPS DURATION NUMBER_OF_FRAMES NUMBER_OF_BYTES
Audio
ID : 2
Format : MPEG Audio
Format version : Version 1
Format profile : Layer 2
Codec ID : A_MPEG/L2
Codec ID/Hint : MP2
Duration : 1h 31mn
Bit rate mode : Constant
Bit rate : 192 Kbps
Channel(s) : 2 channels
Sampling rate : 48.0 KHz
Compression mode : Lossy
Stream size : 126 MiB (7%)
Language : Russian
Default : Yes
Forced : No
DURATION : 01:31:32.880000000
NUMBER_OF_FRAMES : 228870
NUMBER_OF_BYTES : 131829120
_STATISTICS_WRITING_APP : mkvmerge v8.1.0 ('Psychedelic Postcard') 64bit
_STATISTICS_WRITING_DATE_UTC : 2015-12-03 07:28:25
_STATISTICS_TAGS : BPS DURATION NUMBER_OF_FRAMES NUMBER_OF_BYTES

Скриншоты

[teatrix.ru].t22673.torrent 
Торрент: Зарегистрирован [ 2016-03-21 00:52 ] · FA27626723FF29A3D008A4B59521C04706003F3A

Скачать .torrent

Скачать

17 KB

Статус: проверено
Скачан: 1 раз
Размер: 1.66 GB
terms.php



Быстрый ответ

Имя:

      
Для отправки сообщений необходимо включить JavaScript
Показать сообщения:    

Текущее время: 06-Дек 13:08

Часовой пояс: UTC + 3


Вы можете начинать темы
Вы можете отвечать на сообщения
Вы не можете редактировать свои сообщения
Вы не можете удалять свои сообщения
Вы не можете голосовать в опросах
Вы не можете прикреплять файлы к сообщениям
Вы можете скачивать файлы