(Classical, Orchestral, VDE-Gallo) Julien-Francois Zbinden - Oevres orchestrales (Armin Jordan, Lawrence Foster, Jesus Lopez Cobos) - 2007, FLAC (tracks+.cue), lossless


 

[Цитировать]

VA • Julien-François Zbinden: Œuvres orchestrales
Performers:
Orchestra della Svizzera Italiana | Lausanne Sinfonietta
Basel Radio Symphony Orchestra | Lausanne Chamber Orchestra

Conducted by:
Armin Jordan | Lawrence Foster | Jesús López Cobos
Jean-Marie Auberson | Matthias Aeschbacher


Жанр: Classical, Orchestral
Аудио: FLAC | tracks+.cue | lossless | 02:16:54
Источник | релизер: whatCD | Neon_Riots
Label: Gallo | CD 1229-1230 | Swiss | 2007

+CD 1 | 01:14:46

  • Orchestra della Svizzera Italiana, Matthias Aeschbacher
    01 • Symphony No. 1, Op. 18 - Lento / Allegro giocoso • 06:35
    02 • Symphony No. 1, Op. 18 - Adagio molto cantabile • 08:55
    03 • Symphony No. 1, Op. 18 - Vivace assai • 04:35
  • Basel Radio Symphony Orchestra, Jean-Marie Auberson
    04 • Symphony No. 2, Op. 26 - Adagio / Allegro • 11:11
    05 • Symphony No. 2, Op. 26 - Lento (in memoriam Aruthur Honegger) • 09:33
    06 • Symphony No. 2, Op. 26 - Presto • 04:27
    07 • Symphony No. 2, Op. 26 - Lento / Tempo di Marcia / Moderato maestoso • 06:28
  • Lausanne Chamber Orchestra, Armin Jordan
    08 • Torneo veneto, Op. 64 • 13:46
    09 • Prosphora, Op. 61 • 09:47

    log

    Exact Audio Copy V1.0 beta 3 from 29. August 2011
    EAC extraction logfile from 6. April 2015, 22:53
    - / Julien-François Zbinden: Œuvres orchestrales
    Used drive : ATAPI iHAS124 D Adapter: 0 ID: 0
    Read mode : Secure
    Utilize accurate stream : Yes
    Defeat audio cache : Yes
    Make use of C2 pointers : No
    Read offset correction : 6
    Overread into Lead-In and Lead-Out : No
    Fill up missing offset samples with silence : Yes
    Delete leading and trailing silent blocks : No
    Null samples used in CRC calculations : Yes
    Used interface : Installed external ASPI interface
    Gap handling : Appended to previous track
    Used output format : User Defined Encoder
    Selected bitrate : 1024 kBit/s
    Quality : High
    Add ID3 tag : No
    Command line compressor : C:\Program Files (x86)\FLAC\flac.exe
    Additional command line options : -8 -V -T "ARTIST=%artist%" -T "TITLE=%title%" -T "ALBUM=%albumtitle%" -T "DATE=%year%" -T "TRACKNUMBER=%tracknr%" -T "GENRE=%genre%" -T "PERFORMER=%albuminterpret%" -T "COMPOSER=%composer%" %haslyrics%--tag-from-file=LYRICS="%lyricsfile%"%haslyrics% -T "ALBUMARTIST=%albumartist%" -T "DISCNUMBER=%cdnumber%" -T "TOTALDISCS=%totalcds%" -T "TOTALTRACKS=%numtracks%" -T "COMMENT=%comment%" %source% -o %dest%
    TOC of the extracted CD
    Track | Start | Length | Start sector | End sector
    ---------------------------------------------------------
    1 | 0:00.00 | 6:34.21 | 0 | 29570
    2 | 6:34.21 | 8:54.48 | 29571 | 69668
    3 | 15:28.69 | 4:34.25 | 69669 | 90243
    4 | 20:03.19 | 11:10.24 | 90244 | 140517
    5 | 31:13.43 | 9:32.29 | 140518 | 183446
    6 | 40:45.72 | 4:26.36 | 183447 | 203432
    7 | 45:12.33 | 6:27.53 | 203433 | 232510
    8 | 51:40.11 | 13:45.61 | 232511 | 294446
    9 | 65:25.72 | 9:46.42 | 294447 | 338438
    Track 1
    Filename H:\EAC Rips\Julien-François Zbinden - Œuvres orchestrales (2007)\01 - Orchestra della Svizzera Italiana, Matthias Aeschbacher - Symphony No. 1, Op. 18 - Lento , Allegro giocoso.wav
    Pre-gap length 0:00:02.00
    Peak level 100.0 %
    Extraction speed 1.3 X
    Track quality 100.0 %
    Test CRC C17A0171
    Copy CRC C17A0171
    Track not present in AccurateRip database
    Copy OK
    Track 2
    Filename H:\EAC Rips\Julien-François Zbinden - Œuvres orchestrales (2007)\02 - Orchestra della Svizzera Italiana, Matthias Aeschbacher - Symphony No. 1, Op. 18 - Adagio molto cantabile.wav
    Pre-gap length 0:00:03.25
    Peak level 59.6 %
    Extraction speed 1.5 X
    Track quality 100.0 %
    Test CRC B69270A0
    Copy CRC B69270A0
    Track not present in AccurateRip database
    Copy OK
    Track 3
    Filename H:\EAC Rips\Julien-François Zbinden - Œuvres orchestrales (2007)\03 - Orchestra della Svizzera Italiana, Matthias Aeschbacher - Symphony No. 1, Op. 18 - Vivace assai.wav
    Pre-gap length 0:00:02.58
    Peak level 90.2 %
    Extraction speed 1.6 X
    Track quality 100.0 %
    Test CRC 2C9162CF
    Copy CRC 2C9162CF
    Track not present in AccurateRip database
    Copy OK
    Track 4
    Filename H:\EAC Rips\Julien-François Zbinden - Œuvres orchestrales (2007)\04 - Basel Radio Symphony Orchestra, Jean-Marie Auberson - Symphony No. 2, Op. 26 - Adagio , Allegro.wav
    Pre-gap length 0:00:05.12
    Peak level 92.9 %
    Extraction speed 1.8 X
    Track quality 99.9 %
    Test CRC 3A33D7D1
    Copy CRC 3A33D7D1
    Track not present in AccurateRip database
    Copy OK
    Track 5
    Filename H:\EAC Rips\Julien-François Zbinden - Œuvres orchestrales (2007)\05 - Basel Radio Symphony Orchestra, Jean-Marie Auberson - Symphony No. 2, Op. 26 - Lento (in memoriam Aruthur Honegger).wav
    Pre-gap length 0:00:03.01
    Peak level 92.9 %
    Extraction speed 2.1 X
    Track quality 100.0 %
    Test CRC 98866BF2
    Copy CRC 98866BF2
    Track not present in AccurateRip database
    Copy OK
    Track 6
    Filename H:\EAC Rips\Julien-François Zbinden - Œuvres orchestrales (2007)\06 - Basel Radio Symphony Orchestra, Jean-Marie Auberson - Symphony No. 2, Op. 26 - Presto.wav
    Pre-gap length 0:00:02.35
    Peak level 92.9 %
    Extraction speed 2.1 X
    Track quality 100.0 %
    Test CRC 4960CF57
    Copy CRC 4960CF57
    Track not present in AccurateRip database
    Copy OK
    Track 7
    Filename H:\EAC Rips\Julien-François Zbinden - Œuvres orchestrales (2007)\07 - Basel Radio Symphony Orchestra, Jean-Marie Auberson - Symphony No. 2, Op. 26 - Lento , Tempo di Marcia , Moderato maestoso.wav
    Pre-gap length 0:00:01.38
    Peak level 92.9 %
    Extraction speed 2.3 X
    Track quality 100.0 %
    Test CRC DAB825D4
    Copy CRC DAB825D4
    Track not present in AccurateRip database
    Copy OK
    Track 8
    Filename H:\EAC Rips\Julien-François Zbinden - Œuvres orchestrales (2007)\08 - Lausanne Chamber Orchestra, Armin Jordan - Torneo veneto, Op. 64.wav
    Pre-gap length 0:00:06.16
    Peak level 73.8 %
    Extraction speed 2.6 X
    Track quality 100.0 %
    Test CRC E9921207
    Copy CRC E9921207
    Track not present in AccurateRip database
    Copy OK
    Track 9
    Filename H:\EAC Rips\Julien-François Zbinden - Œuvres orchestrales (2007)\09 - Lausanne Chamber Orchestra, Lawrence Foster - Prosphora, Op. 61.wav
    Pre-gap length 0:00:02.73
    Peak level 96.2 %
    Extraction speed 2.7 X
    Track quality 100.0 %
    Test CRC 8EC056B3
    Copy CRC 8EC056B3
    Track not present in AccurateRip database
    Copy OK
    None of the tracks are present in the AccurateRip database
    No errors occurred
    End of status report
    ==== Log checksum CEA13F6D54F6AD75E12D1E6DFAB9B36957990AB943813811D57DEB192A5DA931 ====

    .cue

    REM GENRE Classical
    REM DATE 2007
    REM DISCID 7711A009
    REM COMMENT "ExactAudioCopy v1.0b3"
    CATALOG 7619918122921
    TITLE "Julien-Francois Zbinden: Oeuvres orchestrales"
    FILE "01. Symphony No. 1, Op. 18 - Lento , Allegro giocoso.wav" WAVE
    TRACK 01 AUDIO
    TITLE "Symphony No. 1, Op. 18 - Lento / Allegro giocoso"
    PERFORMER "Orchestra della Svizzera Italiana, Matthias Aeschbacher"
    ISRC CH1400422901
    INDEX 01 00:00:00
    TRACK 02 AUDIO
    TITLE "Symphony No. 1, Op. 18 - Adagio molto cantabile"
    PERFORMER "Orchestra della Svizzera Italiana, Matthias Aeschbacher"
    ISRC CH1400422902
    INDEX 00 06:30:71
    FILE "02. Symphony No. 1, Op. 18 - Adagio molto cantabile.wav" WAVE
    INDEX 01 00:00:00
    TRACK 03 AUDIO
    TITLE "Symphony No. 1, Op. 18 - Vivace assai"
    PERFORMER "Orchestra della Svizzera Italiana, Matthias Aeschbacher"
    ISRC CH1400422903
    INDEX 00 08:51:65
    FILE "03. Symphony No. 1, Op. 18 - Vivace assai.wav" WAVE
    INDEX 01 00:00:00
    TRACK 04 AUDIO
    TITLE "Symphony No. 2, Op. 26 - Adagio / Allegro"
    PERFORMER "Basel Radio Symphony Orchestra, Jean-Marie Auberson"
    ISRC CH1407522904
    INDEX 00 04:29:13
    FILE "04. Symphony No. 2, Op. 26 - Adagio , Allegro.wav" WAVE
    INDEX 01 00:00:00
    TRACK 05 AUDIO
    TITLE "Symphony No. 2, Op. 26 - Lento (in memoriam Aruthur Honegger)"
    PERFORMER "Basel Radio Symphony Orchestra, Jean-Marie Auberson"
    ISRC CH1407522905
    INDEX 00 11:07:23
    FILE "05. Symphony No. 2, Op. 26 - Lento (in memoriam Aruthur Honegger).wav" WAVE
    INDEX 01 00:00:00
    TRACK 06 AUDIO
    TITLE "Symphony No. 2, Op. 26 - Presto"
    PERFORMER "Basel Radio Symphony Orchestra, Jean-Marie Auberson"
    ISRC CH1407522906
    INDEX 00 09:29:69
    FILE "06. Symphony No. 2, Op. 26 - Presto.wav" WAVE
    INDEX 01 00:00:00
    TRACK 07 AUDIO
    TITLE "Symphony No. 2, Op. 26 - Lento / Tempo di Marcia / Moderato maestoso"
    PERFORMER "Basel Radio Symphony Orchestra, Jean-Marie Auberson"
    ISRC CH1407522907
    INDEX 00 04:24:73
    FILE "07. Symphony No. 2, Op. 26 - Lento , Tempo di Marcia , Moderato maestoso.wav" WAVE
    INDEX 01 00:00:00
    TRACK 08 AUDIO
    TITLE "Torneo veneto, Op. 64"
    PERFORMER "Lausanne Chamber Orchestra, Armin Jordan"
    ISRC CH1408222908
    INDEX 00 06:21:37
    FILE "08. Torneo veneto, Op. 64.wav" WAVE
    INDEX 01 00:00:00
    TRACK 09 AUDIO
    TITLE "Prosphora, Op. 61"
    PERFORMER "Lausanne Chamber Orchestra, Lawrence Foster"
    ISRC CH1408722909
    INDEX 00 13:42:63
    FILE "09. Prosphora, Op. 61.wav" WAVE
    INDEX 01 00:00:00

CD 2 | 01:02:08

  • Lausanne Sinfonietta, Jean-Marie Auberson
    01 • Symphony No. 3, Op. 77 - Moderato maestoso / Allegro • 08:53
    02 • Symphony No. 3, Op. 77 - Lento • 09:26
    03 • Symphony No. 3, Op. 77 - Moderato con semplicità • 02:55
    04 • Symphony No. 3, Op. 77 - Allegro agitato • 06:07
  • Lausanne Chamber Orchestra, Jesús López Cobos
    05 • Symphony No. 4, Op. 82 - Lento misterioso / Allegro • 07:43
    06 • Symphony No. 4, Op. 82 - Lento • 07:28
    07 • Symphony No. 4, Op. 82 - Moderato molto • 05:23
    08 • Symphony No. 4, Op. 82 - Prestissimo • 06:03
  • Lausanne Chamber Orchestra, Lawrence Foster
    09 • Elégie • 08:48

    log

    Exact Audio Copy V1.0 beta 3 from 29. August 2011
    EAC extraction logfile from 7. April 2015, 0:16
    - / Julien-François Zbinden: Œuvres orchestrales
    Used drive : ATAPI iHAS124 D Adapter: 0 ID: 0
    Read mode : Secure
    Utilize accurate stream : Yes
    Defeat audio cache : Yes
    Make use of C2 pointers : No
    Read offset correction : 6
    Overread into Lead-In and Lead-Out : No
    Fill up missing offset samples with silence : Yes
    Delete leading and trailing silent blocks : No
    Null samples used in CRC calculations : Yes
    Used interface : Installed external ASPI interface
    Gap handling : Appended to previous track
    Used output format : User Defined Encoder
    Selected bitrate : 1024 kBit/s
    Quality : High
    Add ID3 tag : No
    Command line compressor : C:\Program Files (x86)\FLAC\flac.exe
    Additional command line options : -8 -V -T "ARTIST=%artist%" -T "TITLE=%title%" -T "ALBUM=%albumtitle%" -T "DATE=%year%" -T "TRACKNUMBER=%tracknr%" -T "GENRE=%genre%" -T "PERFORMER=%albuminterpret%" -T "COMPOSER=%composer%" %haslyrics%--tag-from-file=LYRICS="%lyricsfile%"%haslyrics% -T "ALBUMARTIST=%albumartist%" -T "DISCNUMBER=%cdnumber%" -T "TOTALDISCS=%totalcds%" -T "TOTALTRACKS=%numtracks%" -T "COMMENT=%comment%" %source% -o %dest%
    TOC of the extracted CD
    Track | Start | Length | Start sector | End sector
    ---------------------------------------------------------
    1 | 0:00.00 | 8:52.24 | 0 | 39923
    2 | 8:52.24 | 9:25.03 | 39924 | 82301
    3 | 18:17.27 | 2:54.72 | 82302 | 95423
    4 | 21:12.24 | 6:06.11 | 95424 | 122884
    5 | 27:18.35 | 7:42.04 | 122885 | 157538
    6 | 35:00.39 | 7:27.64 | 157539 | 191127
    7 | 42:28.28 | 5:22.09 | 191128 | 215286
    8 | 47:50.37 | 6:02.03 | 215287 | 242439
    9 | 53:52.40 | 8:47.72 | 242440 | 282036
    Track 1
    Filename H:\EAC Rips\Julien-François Zbinden - Œuvres orchestrales (2007)\CD2\01 - Lausanne Sinfonietta, Jean-Mario Auberson - Symphony No. 3, Op. 77 - Moderato maestoso , Allegro.wav
    Pre-gap length 0:00:02.00
    Peak level 100.0 %
    Extraction speed 1.2 X
    Track quality 100.0 %
    Test CRC F1B7ADB9
    Copy CRC F1B7ADB9
    Track not present in AccurateRip database
    Copy OK
    Track 2
    Filename H:\EAC Rips\Julien-François Zbinden - Œuvres orchestrales (2007)\CD2\02 - Lausanne Sinfonietta, Jean-Mario Auberson - Symphony No. 3, Op. 77 - Lento.wav
    Pre-gap length 0:00:05.02
    Peak level 100.0 %
    Extraction speed 1.4 X
    Track quality 99.9 %
    Test CRC B1FCABFD
    Copy CRC B1FCABFD
    Track not present in AccurateRip database
    Copy OK
    Track 3
    Filename H:\EAC Rips\Julien-François Zbinden - Œuvres orchestrales (2007)\CD2\03 - Lausanne Sinfonietta, Jean-Mario Auberson - Symphony No. 3, Op. 77 - Moderato con semplicità.wav
    Pre-gap length 0:00:03.52
    Peak level 100.0 %
    Extraction speed 1.2 X
    Track quality 99.9 %
    Test CRC A0C3393A
    Copy CRC A0C3393A
    Track not present in AccurateRip database
    Copy OK
    Track 4
    Filename H:\EAC Rips\Julien-François Zbinden - Œuvres orchestrales (2007)\CD2\04 - Lausanne Sinfonietta, Jean-Mario Auberson - Symphony No. 3, Op. 77 - Allegro agitato.wav
    Pre-gap length 0:00:04.25
    Peak level 100.0 %
    Extraction speed 1.5 X
    Track quality 99.9 %
    Test CRC 5844C619
    Copy CRC 5844C619
    Track not present in AccurateRip database
    Copy OK
    Track 5
    Filename H:\EAC Rips\Julien-François Zbinden - Œuvres orchestrales (2007)\CD2\05 - Lausanne Chamber Orchestra, Jesús López Cobos - Symphony No. 4, Op. 82 - Lento misterioso , Allegro.wav
    Pre-gap length 0:00:03.19
    Peak level 85.3 %
    Extraction speed 1.8 X
    Track quality 100.0 %
    Test CRC A7462F9F
    Copy CRC A7462F9F
    Track not present in AccurateRip database
    Copy OK
    Track 6
    Filename H:\EAC Rips\Julien-François Zbinden - Œuvres orchestrales (2007)\CD2\06 - Lausanne Chamber Orchestra, Jesús López Cobos - Symphony No. 4, Op. 82 - Lento.wav
    Pre-gap length 0:00:04.43
    Peak level 83.1 %
    Extraction speed 1.8 X
    Track quality 99.9 %
    Test CRC 227500AE
    Copy CRC 227500AE
    Track not present in AccurateRip database
    Copy OK
    Track 7
    Filename H:\EAC Rips\Julien-François Zbinden - Œuvres orchestrales (2007)\CD2\07 - Lausanne Chamber Orchestra, Jesús López Cobos - Symphony No. 4, Op. 82 - Moderato molto.wav
    Pre-gap length 0:00:04.54
    Peak level 50.5 %
    Extraction speed 2.0 X
    Track quality 100.0 %
    Test CRC C6BFB489
    Copy CRC C6BFB489
    Track not present in AccurateRip database
    Copy OK
    Track 8
    Filename H:\EAC Rips\Julien-François Zbinden - Œuvres orchestrales (2007)\CD2\08 - Lausanne Chamber Orchestra, Jesús López Cobos - Symphony No. 4, Op. 82 - Prestissimo.wav
    Pre-gap length 0:00:04.24
    Peak level 79.5 %
    Extraction speed 2.1 X
    Track quality 100.0 %
    Test CRC EF1DDADF
    Copy CRC EF1DDADF
    Track not present in AccurateRip database
    Copy OK
    Track 9
    Filename H:\EAC Rips\Julien-François Zbinden - Œuvres orchestrales (2007)\CD2\09 - Lausanne Chamber Orchestra, Lawrence Foster - Elégie.wav
    Pre-gap length 0:00:03.02
    Peak level 83.6 %
    Extraction speed 2.3 X
    Track quality 100.0 %
    Test CRC D5BF369F
    Copy CRC D5BF369F
    Track not present in AccurateRip database
    Copy OK
    None of the tracks are present in the AccurateRip database
    No errors occurred
    End of status report
    ==== Log checksum BD265FE3B052EBD5CAF36AB5CD83B8043FFB49E059EA0F863BC5BF1CE91AD7DC ====

    .cue

    REM GENRE Classical
    REM DATE 2007
    REM DISCID 6A0EB009
    REM COMMENT "ExactAudioCopy v1.0b3"
    CATALOG 7619918123027
    TITLE "Julien-Francois Zbinden: Oeuvres orchestrales"
    FILE "01. Symphony No. 3, Op. 77 - Moderato maestoso , Allegro.wav" WAVE
    TRACK 01 AUDIO
    TITLE "Symphony No. 3, Op. 77 - Moderato maestoso / Allegro"
    PERFORMER "Lausanne Sinfonietta, Jean-Marie Auberson"
    ISRC CH1408923001
    INDEX 01 00:00:00
    TRACK 02 AUDIO
    TITLE "Symphony No. 3, Op. 77 - Lento"
    PERFORMER "Lausanne Sinfonietta, Jean-Marie Auberson"
    ISRC CH1408923002
    INDEX 00 08:47:22
    FILE "02. Symphony No. 3, Op. 77 - Lento.wav" WAVE
    INDEX 01 00:00:00
    TRACK 03 AUDIO
    TITLE "Symphony No. 3, Op. 77 - Moderato con semplicitа"
    PERFORMER "Lausanne Sinfonietta, Jean-Marie Auberson"
    ISRC CH1408923003
    INDEX 00 09:21:26
    FILE "03. Symphony No. 3, Op. 77 - Moderato con semplicitа.wav" WAVE
    INDEX 01 00:00:00
    TRACK 04 AUDIO
    TITLE "Symphony No. 3, Op. 77 - Allegro agitato"
    PERFORMER "Lausanne Sinfonietta, Jean-Marie Auberson"
    ISRC CH1408923004
    INDEX 00 02:50:47
    FILE "04. Symphony No. 3, Op. 77 - Allegro agitato.wav" WAVE
    INDEX 01 00:00:00
    TRACK 05 AUDIO
    TITLE "Symphony No. 4, Op. 82 - Lento misterioso / Allegro"
    PERFORMER "Lausanne Chamber Orchestra, Jesъs Lуpez Cobos"
    ISRC CH1409323005
    INDEX 00 06:02:67
    FILE "05. Symphony No. 4, Op. 82 - Lento misterioso , Allegro.wav" WAVE
    INDEX 01 00:00:00
    TRACK 06 AUDIO
    TITLE "Symphony No. 4, Op. 82 - Lento"
    PERFORMER "Lausanne Chamber Orchestra, Jesъs Lуpez Cobos"
    ISRC CH1409323006
    INDEX 00 07:37:36
    FILE "06. Symphony No. 4, Op. 82 - Lento.wav" WAVE
    INDEX 01 00:00:00
    TRACK 07 AUDIO
    TITLE "Symphony No. 4, Op. 82 - Moderato molto"
    PERFORMER "Lausanne Chamber Orchestra, Jesъs Lуpez Cobos"
    ISRC CH1409323007
    INDEX 00 07:23:10
    FILE "07. Symphony No. 4, Op. 82 - Moderato molto.wav" WAVE
    INDEX 01 00:00:00
    TRACK 08 AUDIO
    TITLE "Symphony No. 4, Op. 82 - Prestissimo"
    PERFORMER "Lausanne Chamber Orchestra, Jesъs Lуpez Cobos"
    ISRC CH1409323008
    INDEX 00 05:17:60
    FILE "08. Symphony No. 4, Op. 82 - Prestissimo.wav" WAVE
    INDEX 01 00:00:00
    TRACK 09 AUDIO
    TITLE "Elegie"
    PERFORMER "Lausanne Chamber Orchestra, Lawrence Foster"
    ISRC CH1408723009
    INDEX 00 05:59:01
    FILE "09. Elegie.wav" WAVE
    INDEX 01 00:00:00



Показать сообщения:    

Текущее время: 06-Дек 13:16

Часовой пояс: UTC + 3


Вы не можете начинать темы
Вы не можете отвечать на сообщения
Вы не можете редактировать свои сообщения
Вы не можете удалять свои сообщения
Вы не можете голосовать в опросах
Вы не можете прикреплять файлы к сообщениям
Вы не можете скачивать файлы