[TR24][SM][OF] Frederic Chopin - Nocturnes, Scherzos, Sonata No. 2 (Louis Lortie Plays Chopin, Volume 1) - 2010 (Classical, Piano)


Статистика раздачи [Обновить пиров]
Размер:  1.27 GB   |    Зарегистрирован:  8 месяцев 19 дней   |    Скачан:  3 раза

Полного источника не было: 2 месяца 2 дня

 
   
 
 
 

[Цитировать]

Chopin - Nocturnes, Scherzos, Sonata No. 2 (Louis Lortie Plays Chopin, Volume 1)
Год издания: 2010
Жанр: Classical, Piano
Издатель (лейбл): Chandos/CHAN 10588
Продолжительность: 01:19:28
Наличие сканов: да-Контейнер: FLAC (*.flac)
Тип рипа: tracks
Разрядность: 24bit / 96kHz
Количество каналов: 2.0-Исполнители:
Louis Lortie - Piano

Треклист:

01. Nocturne Op.72 No.1 (04:31)
02. Scherzo Op.20 No.1 (09:33)
03. Nocturne Op.55 No.2 (04:43)
04. Scherzo Op.31 No.2 (09:28)
05. Nocture Op.62 No.2 (05:37)
06. Scherzo Op.39 No.3 (07:04)
07. Nocturne Op.62 No.1 (06:36)
08. Scherzo Op.54 No.4 (10:27)
Piano Sonata Op.35 No.2
09. I. Grave Doppio movimento Agitato (07:16)
10. II. Scherzo Piu lento Tempo I (05:37)
11. III. Marche funebre Lento (07:08)
12. IV. Presto (01:28)

Динамический диапазон - DR14:

foobar2000 1.3.2 / Замер динамического диапазона (DR) 1.1.1
Дата отчёта: 2015-12-06 10:25:45
--------------------------------------------------------------------------------
Анализ: Louis Lortie / Louis Lortie plays Chopin Volume 1
--------------------------------------------------------------------------------
DR Пики RMS Продолжительность трека
--------------------------------------------------------------------------------
DR14 -7.16 дБ -27.19 дБ 4:31 01-Nocturne Op.72 No.1
DR14 -2.57 дБ -22.78 дБ 9:33 02-Scherzo Op.20 No.1
DR14 -6.32 дБ -26.16 дБ 4:43 03-Nocturne Op.55 No.2
DR14 -1.43 дБ -20.89 дБ 9:28 04-Scherzo Op.31 No.2
DR14 -9.42 дБ -28.26 дБ 5:37 05-Nocture Op.62 No.2
DR15 -0.32 дБ -21.65 дБ 7:04 06-Scherzo Op.39 No.3
DR14 -10.47 дБ -31.66 дБ 6:36 07-Nocturne Op.62 No.1
DR15 -0.93 дБ -23.14 дБ 10:27 08-Scherzo Op.54 No.4
DR13 -1.89 дБ -19.35 дБ 7:16 09-Piano Sonata Op.35 No.2 - I. Grave Doppio movimento Agitato
DR14 -0.58 дБ -21.58 дБ 5:37 10-Piano Sonata Op.35 No.2 - II. Scherzo Piu lento Tempo I
DR15 -2.63 дБ -24.55 дБ 7:08 11-Piano Sonata Op.35 No.2 - III. Marche funebre Lento
DR16 -2.38 дБ -26.11 дБ 1:28 12-Piano Sonata Op.35 No.2 - IV. Presto
--------------------------------------------------------------------------------
Количество треков: 12
Реальные значения DR: DR14
Частота: 96000 Гц
Каналов: 2
Разрядность: 24
Битрейт: 2271 кбит/с
Кодек: FLAC
================================================================================
-Louis Lortie Plays Chopin, Volume 1
Louis Lortie Plays Chopin, Volume 2
Louis Lortie Plays Chopin, Volume 3
Louis Lortie Plays Chopin, Volume 4
[teatrix.ru].t22679.torrent 
Торрент: Зарегистрирован [ 2016-03-21 00:54 ] · EE7BF2D6D4068BE01E720A7906D2D5A391F7DA28

Скачать .torrent

Скачать

14 KB

Статус: проверено
Скачан: 3 раз
Размер: 1.27 GB
terms.php



Быстрый ответ

Имя:

      
Для отправки сообщений необходимо включить JavaScript
Показать сообщения:    

Текущее время: 09-Дек 12:45

Часовой пояс: UTC + 3


Вы можете начинать темы
Вы можете отвечать на сообщения
Вы не можете редактировать свои сообщения
Вы не можете удалять свои сообщения
Вы не можете голосовать в опросах
Вы не можете прикреплять файлы к сообщениям
Вы можете скачивать файлы