[TR24][SM][OF] Frederic Chopin - Nocturnes, Ballades, Berceuse, Barcarolle (Louis Lortie Plays Chopin, Volume 2) - 2012 (Classical, Piano)2


Статистика раздачи [Обновить пиров]
Размер:  1.17 GB   |    Зарегистрирован:  8 месяцев 17 дней   |    Скачан:  1 раз

Полного источника не было: 3 месяца 21 день

 
   
 
 
 

[Цитировать]

Chopin - Nocturnes, Ballades, Berceuse, Barcarolle (Louis Lortie Plays Chopin, Volume 2)
Год издания: 2012
Жанр: Classical, Piano
Издатель (лейбл): Chandos/CHAN 10714
Продолжительность: 01:15:16
Наличие сканов: да-Контейнер: FLAC (*.flac)
Тип рипа: tracks
Разрядность: 24bit / 96kHz
Количество каналов: 2.0-Исполнители:
Louis Lortie - Piano

Треклист:

01. Nocturne Op.15 No.3 (04:21)
02. Ballade Op.23 No.1 (09:00)
03. Nocturne Op.15 No.1 (04:18)
04. Ballade Op.38 No.2 (07:01)
05. Nocturne Op.9 No.2 (04:35)
06. Nocturne Op.48 No.1 (05:23)
07. Ballade. Op.47 No.3 (07:10)
08. Nocturne Op.55 No.1 (05:00)
09. Ballade Op.52 No.4 (11:34)
10. Berceuse Op.57 (04:45)
11. Nocturne Op.15 No.2 (03:38)
12. Barcarolle Op.60 (08:31)

Динамический диапазон - DR14:

foobar2000 1.3.2 / Замер динамического диапазона (DR) 1.1.1
Дата отчёта: 2015-12-06 10:26:54
--------------------------------------------------------------------------------
Анализ: Louis Lortie / Louis Lortie plays Chopin Volume 2
--------------------------------------------------------------------------------
DR Пики RMS Продолжительность трека
--------------------------------------------------------------------------------
DR15 -6.91 дБ -27.65 дБ 4:21 01-Nocturne Op.15 No.3
DR13 -2.35 дБ -22.97 дБ 9:00 02-Ballade Op.23 No.1
DR12 -7.30 дБ -26.09 дБ 4:18 03-Nocturne Op.15 No.1
DR13 -2.28 дБ -21.24 дБ 7:01 04-Ballade Op.38 No.2
DR14 -11.20 дБ -31.62 дБ 4:35 05-Nocturne Op.9 No.2
DR12 -4.74 дБ -23.21 дБ 5:23 06-Nocturne Op.48 No.1
DR14 -4.18 дБ -23.48 дБ 7:10 07-Ballade. Op.47 No.3
DR13 -8.93 дБ -29.17 дБ 5:00 08-Nocturne Op.55 No.1
DR16 -0.10 дБ -21.90 дБ 11:34 09-Ballade Op.52 No.4
DR13 -15.27 дБ -34.43 дБ 4:45 10-Berceuse Op.57
DR14 -5.39 дБ -27.51 дБ 3:38 11-Nocturne Op.15 No.2
DR14 -4.11 дБ -23.66 дБ 8:31 12-Barcarolle Op.60
--------------------------------------------------------------------------------
Количество треков: 12
Реальные значения DR: DR14
Частота: 96000 Гц
Каналов: 2
Разрядность: 24
Битрейт: 2238 кбит/с
Кодек: FLAC
================================================================================
-Louis Lortie Plays Chopin, Volume 1
Louis Lortie Plays Chopin, Volume 2
Louis Lortie Plays Chopin, Volume 3
Louis Lortie Plays Chopin, Volume 4
[teatrix.ru].t22681.torrent 
Торрент: Зарегистрирован [ 2016-03-21 00:54 ] · 635AD28CF37AE5AB32FE8D460D9DFC544285C6CB

Скачать .torrent

Скачать

13 KB

Статус: проверено
Скачан: 1 раз
Размер: 1.17 GB
terms.php



Быстрый ответ

Имя:

      
Для отправки сообщений необходимо включить JavaScript
Показать сообщения:    

Текущее время: 07-Дек 19:18

Часовой пояс: UTC + 3


Вы можете начинать темы
Вы можете отвечать на сообщения
Вы не можете редактировать свои сообщения
Вы не можете удалять свои сообщения
Вы не можете голосовать в опросах
Вы не можете прикреплять файлы к сообщениям
Вы можете скачивать файлы