[TR24][SM][OF] Frederic Chopin - Nocturnes, Impromptus & Sonata in B Minor, Op. 58 (Louis Lortie Plays Chopin, Volume 3) - 2014 (Classical, Piano)


Статистика раздачи [Обновить пиров]
Размер:  1.07 GB   |    Зарегистрирован:  8 месяцев 18 дней   |    Скачан:  0 раз

Полного источника не было: Никогда

 
   
 
 
 

[Цитировать]

Chopin - Nocturnes, Impromptus & Sonata in B Minor, Op. 58 (Louis Lortie Plays Chopin, Volume 3)
Год издания: 2014
Жанр: Classical, Piano
Издатель (лейбл): Chandos/CHAN 10813
Продолжительность: 01:16:37
Наличие сканов: да-Контейнер: FLAC (*.flac)
Тип рипа: tracks
Разрядность: 24bit / 96kHz
Количество каналов: 2.0-Исполнители:
Louis Lortie - Piano

Треклист:

01. Nocturne Op.27 No.1 (05:51)
02. Fantasy-Impromptu Op.66 (05:01)
03. Nocturne Op.32 No.2 (05:38)
04. Impromptu Op.29 (04:01)
05. Nocturne Op.48 No.2 (06:29)
06. Impromptu Op.36 (05:32)
07. Nocturne Op.27 No.2 (06:00)
08. Impromptu Op.51 (04:55)
09. Nocturne Op.9 No.3 (06:43)
Piano Sonata Op.58 No.3
10. I. Allegro maestoso (09:20)
11. II. Scherzo (02:45)
12. III. Largo (08:54)
13. IV. Agitato (05:28)

Динамический диапазон - DR14:

foobar2000 1.3.2 / Замер динамического диапазона (DR) 1.1.1
Дата отчёта: 2015-12-06 10:27:53
--------------------------------------------------------------------------------
Анализ: Louis Lortie / Louis Lortie plays Chopin Volume 3
--------------------------------------------------------------------------------
DR Пики RMS Продолжительность трека
--------------------------------------------------------------------------------
DR14 -2.38 дБ -24.82 дБ 5:51 01-Nocturne Op.27 No.1
DR11 -3.87 дБ -22.79 дБ 5:01 02-Fantasy-Impromptu Op.66
DR12 -8.77 дБ -26.68 дБ 5:38 03-Nocturne Op.32 No.2
DR12 -9.67 дБ -26.48 дБ 4:01 04-Impromptu Op.29
DR15 -5.85 дБ -26.61 дБ 6:29 05-Nocturne Op.48 No.2
DR14 -5.44 дБ -25.17 дБ 5:32 06-Impromptu Op.36
DR14 -7.16 дБ -28.32 дБ 6:00 07-Nocturne Op.27 No.2
DR13 -7.47 дБ -25.36 дБ 4:55 08-Impromptu Op.51
DR14 -4.94 дБ -26.81 дБ 6:43 09-Nocturne Op.9 No.3
DR13 -5.92 дБ -23.85 дБ 9:20 10-Piano Sonata Op.58 No.3 - I. Allegro maestoso
DR15 -2.95 дБ -25.26 дБ 2:45 11-Piano Sonata Op.58 No.3 - II. Scherzo
DR17 -9.68 дБ -32.47 дБ 8:54 12-Piano Sonata Op.58 No.3 - III. Largo
DR14 -1.47 дБ -19.60 дБ 5:28 13-Piano Sonata Op.58 No.3 - IV. Agitato
--------------------------------------------------------------------------------
Количество треков: 13
Реальные значения DR: DR14
Частота: 96000 Гц
Каналов: 2
Разрядность: 24
Битрейт: 2136 кбит/с
Кодек: FLAC
================================================================================
-Louis Lortie Plays Chopin, Volume 1
Louis Lortie Plays Chopin, Volume 2
Louis Lortie Plays Chopin, Volume 3
Louis Lortie Plays Chopin, Volume 4
[teatrix.ru].t22682.torrent 
Торрент: Зарегистрирован [ 2016-03-21 00:54 ] · 4495AD2B17D17C244DD0136F11D357652708CB39

Скачать .torrent

Скачать

12 KB

Статус: проверено
Скачан: 0 раз
Размер: 1.07 GB
terms.php



Быстрый ответ

Имя:

      
Для отправки сообщений необходимо включить JavaScript
Показать сообщения:    

Текущее время: 08-Дек 14:58

Часовой пояс: UTC + 3


Вы можете начинать темы
Вы можете отвечать на сообщения
Вы не можете редактировать свои сообщения
Вы не можете удалять свои сообщения
Вы не можете голосовать в опросах
Вы не можете прикреплять файлы к сообщениям
Вы можете скачивать файлы