[TR24][SM][OF] Frederic Chopin - Waltzes & Nocturnes (Louis Lortie Plays Chopin, Volume 4) - 2010 (Classical, Piano)


Статистика раздачи [Обновить пиров]
Размер:  1.19 GB   |    Зарегистрирован:  8 месяцев 17 дней   |    Скачан:  1 раз

Полного источника не было: 12 дней

 
   
 
 
 

[Цитировать]

Chopin - Waltzes & Nocturnes (Louis Lortie Plays Chopin, Volume 4)
Год издания: 2015
Жанр: Classical, Piano
Издатель (лейбл): Chandos/CHAN 10852
Продолжительность: 01:23:18
Наличие сканов: да-Контейнер: FLAC (*.flac)
Тип рипа: tracks
Разрядность: 24bit / 96kHz
Количество каналов: 2.0-Исполнители:
Louis Lortie - Piano

Треклист:

01. Waltz in A minor, Op. post. (02:31)
02. Waltz in E minor, Op. post. (02:44)
03. Waltz in E major, Op. post. (01:53)
04. Waltz in B minor, Op. post. 69 No.2 (02:58)
05. Waltz in E flat major, Op. post. (02:17)
06. Waltz in G flat major, Op. post.70 No.1 (02:07)
07. Waltz in F minor, Op. post.70 No.2 (02:36)
08. Waltz in D flat major, Op. post.70 No.3 (02:35)
09. Waltz in E flat major, Op. post. (01:52)
10. Waltz in E flat major, Op.18 (05:01)
11. Waltz in A flat major, Op. post. (01:38)
12. Waltz in A flat major, Op.34 No.1 (05:04)
13. Waltz in A minor, Op.34 No.2 (05:18)
14. Waltz in F major, Op.34 No.3 (02:12)
15. Waltz in A flat major, Op. post. 69 No.1 (03:45)
16. Waltz in A flat major, Op.42 (03:37)
17. Nocturne in B flat minor, Op.9 No.1 (05:52)
18. Waltz in D flat major, Op.64 No.1 (01:44)
19. Nocturne in C sharp minor Op.post (04:10)
20. Nocturne in B major, Op.32 No.1 (05:11)
21. Waltz in C sharp minor, Op.64 No.2 (03:12)
22. Waltz in A flat major, Op.64 No.3 (02:44)
23. Nocturne in G minor, Op.37 No.1 (06:34)
24. Nocturne in G major, Op.37 No.2 (05:43)

Динамический диапазон - DR13:

foobar2000 1.3.2 / Замер динамического диапазона (DR) 1.1.1
Дата отчёта: 2015-12-06 10:29:56
--------------------------------------------------------------------------------
Анализ: Louis Lortie / Chopin. Waltzes, Nocturnes
--------------------------------------------------------------------------------
DR Пики RMS Продолжительность трека
--------------------------------------------------------------------------------
DR13 -13.91 дБ -33.11 дБ 2:31 01-Waltz in A minor, Op. post.
DR13 -0.70 дБ -22.16 дБ 2:44 02-Waltz in E minor, Op. post.
DR12 -6.91 дБ -23.44 дБ 1:53 03-Waltz in E major, Op. post.
DR12 -6.57 дБ -24.61 дБ 2:58 04-Waltz in B minor, Op. post. 69 No.2
DR13 -5.84 дБ -24.83 дБ 2:17 05-Waltz in E flat major, Op. post.
DR12 -7.22 дБ -24.56 дБ 2:07 06-Waltz in G flat major, Op. post.70 No.1
DR12 -11.71 дБ -28.51 дБ 2:36 07-Waltz in F minor, Op. post.70 No.2
DR12 -11.41 дБ -26.54 дБ 2:35 08-Waltz in D flat major, Op. post.70 No.3
DR11 -11.01 дБ -26.88 дБ 1:52 09-Waltz in E flat major, Op. post.
DR14 -2.92 дБ -21.91 дБ 5:01 10-Waltz in E flat major, Op.18
DR12 -8.88 дБ -23.99 дБ 1:38 11-Waltz in A flat major, Op. post.
DR12 -2.08 дБ -20.20 дБ 5:04 12-Waltz in A flat major, Op.34 No.1
DR13 -10.22 дБ -28.18 дБ 5:18 13-Waltz in A minor, Op.34 No.2
DR15 -0.03 дБ -20.20 дБ 2:12 14-Waltz in F major, Op.34 No.3
DR15 -7.60 дБ -29.05 дБ 3:45 15-Waltz in A flat major, Op. post. 69 No.1
DR13 -1.98 дБ -21.74 дБ 3:37 16-Waltz in A flat major, Op.42
DR13 -9.18 дБ -27.87 дБ 5:52 17-Nocturne in B flat minor, Op.9 No.1
DR13 -5.35 дБ -25.15 дБ 1:44 18-Waltz in D flat major, Op.64 No.1
DR14 -9.71 дБ -30.21 дБ 4:10 19-Nocturne in C sharp minor Op.post
DR15 -5.29 дБ -26.36 дБ 5:11 20-Nocturne in B major, Op.32 No.1
DR12 -9.73 дБ -26.42 дБ 3:12 21-Waltz in C sharp minor, Op.64 No.2
DR11 -9.11 дБ -25.71 дБ 2:44 22-Waltz in A flat major, Op.64 No.3
DR14 -8.73 дБ -27.55 дБ 6:34 23-Nocturne in G minor, Op.37 No.1
DR13 -7.33 дБ -26.78 дБ 5:43 24-Nocturne in G major, Op.37 No.2
--------------------------------------------------------------------------------
Количество треков: 24
Реальные значения DR: DR13
Частота: 96000 Гц
Каналов: 2
Разрядность: 24
Битрейт: 2220 кбит/с
Кодек: FLAC
================================================================================
-Louis Lortie Plays Chopin, Volume 1
Louis Lortie Plays Chopin, Volume 2
Louis Lortie Plays Chopin, Volume 3
Louis Lortie Plays Chopin, Volume 4
[teatrix.ru].t22683.torrent 
Торрент: Зарегистрирован [ 2016-03-21 00:54 ] · 579CC57BC8641AA61BAA8D1328DB4AEF66001AE9

Скачать .torrent

Скачать

14 KB

Статус: проверено
Скачан: 1 раз
Размер: 1.19 GB
terms.php



Быстрый ответ

Имя:

      
Для отправки сообщений необходимо включить JavaScript
Показать сообщения:    

Текущее время: 07-Дек 11:38

Часовой пояс: UTC + 3


Вы можете начинать темы
Вы можете отвечать на сообщения
Вы не можете редактировать свои сообщения
Вы не можете удалять свои сообщения
Вы не можете голосовать в опросах
Вы не можете прикреплять файлы к сообщениям
Вы можете скачивать файлы