(Classical) Alfred Hill - String Quartets, Vol. 1 (Dominion String Quartet) - 2007, FLAC (tracks+.cue) lossless


 

[Цитировать]

Alfred Hill - String Quartets, Vol. 1 (Dominion String Quartet)
Жанр: Classical
Год издания диска: 2007
Издатель (лейбл): Naxos
Номер по каталогу: 8.570491
Дата записи: 2006
Аудиокодек: FLAC
Тип рипа: tracks+.cue
Битрейт аудио: lossless
Продолжительность: 01:05:03
Источник: скачано с
сайт-источник/ник/другое: WEB
Треклист:
String Quartet No. 1 in B-Flat Major, "Maori"
1. I. Moderato - Allegro 00:06:54
2. II. Waiata 00:03:16
3. III. Tangi (Lament) 00:04:18
4. IV. Finale 00:07:58
Show Details String Quartet No. 2 in G Minor "A Maori Legend in Four Scenes"
5. I. The Forest 00:05:31
6. II. The Dream 00:06:53
7. III. Scherzo 00:03:39
8. IV. Finale 00:06:02
Show Details String Quartet No. 3 in A Minor "The Carnival"
9. I. In the Streets 00:04:56
10. II. Andantino 00:05:17
11. III. Scherzo 00:03:02
12. IV. Finale 00:07:17
Исполнители:
Dominion String Quartet

Лог создания рипа

Exact Audio Copy V1.1 from 23. June 2015
EAC extraction logfile from 24. November 2015, 9:51
Hill, Alfred / String Quartets, Vol. 1 (Dominion String Quartet)
Used drive : TSSTcorpCDDVDW TS-T633C Adapter: 1 ID: 0
Read mode : Secure
Utilize accurate stream : Yes
Defeat audio cache : Yes
Make use of C2 pointers : No
Read offset correction : 6
Overread into Lead-In and Lead-Out : No
Fill up missing offset samples with silence : Yes
Delete leading and trailing silent blocks : No
Null samples used in CRC calculations : Yes
Used interface : Native Win32 interface for Win NT & 2000
Gap handling : Appended to previous track
Used output format : User Defined Encoder
Selected bitrate : 1024 kBit/s
Quality : High
Add ID3 tag : No
Command line compressor : R:\Exact Audio Copy\FLAC\flac.exe
Additional command line options : -V -0 -T "Comment=Ripped by Tapaz9/Johnston" -T "artist=%artist%" -T "title=%title%" -T "album=%albumtitle%" -T "date=%year%" -T "tracknumber=%tracknr%" -T "genre=%genre%" %source%
TOC of the extracted CD
Track | Start | Length | Start sector | End sector
---------------------------------------------------------
1 | 0:00.00 | 6:57.45 | 0 | 31319
2 | 6:57.45 | 3:18.66 | 31320 | 46235
3 | 10:16.36 | 4:18.70 | 46236 | 65655
4 | 14:35.31 | 8:06.31 | 65656 | 102136
5 | 22:41.62 | 5:34.44 | 102137 | 127230
6 | 28:16.31 | 6:55.68 | 127231 | 158423
7 | 35:12.24 | 3:41.29 | 158424 | 175027
8 | 38:53.53 | 6:10.67 | 175028 | 202844
9 | 45:04.45 | 4:58.43 | 202845 | 225237
10 | 50:03.13 | 5:16.23 | 225238 | 248960
11 | 55:19.36 | 3:03.21 | 248961 | 262706
12 | 58:22.57 | 7:16.18 | 262707 | 295424
Track 1
Filename R:\Musique\Hill, Alfred\Hill_StringQuartetsVol1\01 - String Quartet No. 1 in B-Flat Major, ''Maori'' - I. Moderato - Allegro.wav
Pre-gap length 0:00:02.00
Peak level 58.0 %
Extraction speed 13.9 X
Track quality 100.0 %
Copy CRC DE418A28
Copy OK
Track 2
Filename R:\Musique\Hill, Alfred\Hill_StringQuartetsVol1\02 - String Quartet No. 1 in B-Flat Major, ''Maori'' - II. Waiata.wav
Peak level 77.1 %
Extraction speed 11.2 X
Track quality 99.9 %
Copy CRC 700FD579
Copy OK
Track 3
Filename R:\Musique\Hill, Alfred\Hill_StringQuartetsVol1\03 - String Quartet No. 1 in B-Flat Major, ''Maori'' - III. Tangi (Lament).wav
Peak level 88.5 %
Extraction speed 11.4 X
Track quality 99.9 %
Copy CRC 4F2C94E2
Copy OK
Track 4
Filename R:\Musique\Hill, Alfred\Hill_StringQuartetsVol1\04 - String Quartet No. 1 in B-Flat Major, ''Maori'' - IV. Finale.wav
Peak level 96.8 %
Extraction speed 14.1 X
Track quality 100.0 %
Copy CRC F7748687
Copy OK
Track 5
Filename R:\Musique\Hill, Alfred\Hill_StringQuartetsVol1\05 - String Quartet No. 2 in G Minor ''A Maori Legend in Four Scenes'' - I. The Forest.wav
Peak level 66.0 %
Extraction speed 13.5 X
Track quality 100.0 %
Copy CRC C18E320A
Copy OK
Track 6
Filename R:\Musique\Hill, Alfred\Hill_StringQuartetsVol1\06 - String Quartet No. 2 in G Minor ''A Maori Legend in Four Scenes'' - II. The Dream.wav
Peak level 63.9 %
Extraction speed 14.2 X
Track quality 100.0 %
Copy CRC AF711DB9
Copy OK
Track 7
Filename R:\Musique\Hill, Alfred\Hill_StringQuartetsVol1\07 - String Quartet No. 2 in G Minor ''A Maori Legend in Four Scenes'' - III. Scherzo.wav
Peak level 88.7 %
Extraction speed 13.6 X
Track quality 100.0 %
Copy CRC 48CFD40E
Copy OK
Track 8
Filename R:\Musique\Hill, Alfred\Hill_StringQuartetsVol1\08 - String Quartet No. 2 in G Minor ''A Maori Legend in Four Scenes'' - IV. Finale.wav
Peak level 63.9 %
Extraction speed 14.0 X
Track quality 100.0 %
Copy CRC 1BE93D19
Copy OK
Track 9
Filename R:\Musique\Hill, Alfred\Hill_StringQuartetsVol1\09 - String Quartet No. 3 in A Minor ''The Carnival'' - I. In the Streets.wav
Peak level 88.4 %
Extraction speed 14.0 X
Track quality 100.0 %
Copy CRC C1A801FE
Copy OK
Track 10
Filename R:\Musique\Hill, Alfred\Hill_StringQuartetsVol1\10 - String Quartet No. 3 in A Minor ''The Carnival'' - II. Andantino.wav
Peak level 73.3 %
Extraction speed 13.9 X
Track quality 100.0 %
Copy CRC 0D2035A1
Copy OK
Track 11
Filename R:\Musique\Hill, Alfred\Hill_StringQuartetsVol1\11 - String Quartet No. 3 in A Minor ''The Carnival'' - III. Scherzo.wav
Peak level 93.2 %
Extraction speed 10.0 X
Track quality 99.9 %
Copy CRC 499F31CE
Copy OK
Track 12
Filename R:\Musique\Hill, Alfred\Hill_StringQuartetsVol1\12 - String Quartet No. 3 in A Minor ''The Carnival'' - IV. Finale.wav
Peak level 98.9 %
Extraction speed 11.4 X
Track quality 99.9 %
Copy CRC 8D5B4FEA
Copy OK
No errors occurred
End of status report
==== Log checksum 2D009CC8FB082A8DA760C2CA8198C4264154BD279316F55D553E808EB678127A ====



Показать сообщения:    

Текущее время: 10-Дек 06:08

Часовой пояс: UTC + 3


Вы не можете начинать темы
Вы не можете отвечать на сообщения
Вы не можете редактировать свои сообщения
Вы не можете удалять свои сообщения
Вы не можете голосовать в опросах
Вы не можете прикреплять файлы к сообщениям
Вы не можете скачивать файлы