Пантелеймон Пономаренко (Алай Анатолий Иванович) [Беларусь, Белоруссия, 2008, Документальный, DVB-AVC]


Статистика раздачи [Обновить пиров]
Размер:  894 MB   |    Зарегистрирован:  8 месяцев 14 дней   |    Скачан:  0 раз

Полного источника не было: Никогда

 
   
 
 
 

[Цитировать]

Пантелеймон Пономаренко
Год выпуска: 2008
Страна: Республика Беларусь
Студия: УП «Национальная киностудия «Беларусьфильм»
Жанр: Документальный
Продолжительность: 00:50:07
Перевод: Не требуется
Автор сценария: В.Селеменев, В.Скалабан
Режиссер: Алай Анатолий Иванович
Описание:
Фильм о Пантелеймоне Кондратьевиче Пономаренко, человеке, который входил в высший эшелон руководителей советского государства, в 1938-1948 годах был 1-м секретарем ЦК Компартии Беларуси. Для Пономаренко эти годы – «незабываемое время». Кинофильм представляет собой не только рассказ о незаурядном партийном деятеле, но и попытку авторов внести свой вклад в осмысление тех страниц истории, которые и сегодня не всеми воспринимаются однозначно. Это репрессии конца 30-х годов прошлого столетия, взаимоотношения партии и НКВД, катастрофа 41-го года, начала войны, оценка трагических аспектов партизанского движения.
Благодарность: исходник для данной раздачи, записан с цифрового наземного канала, т.е. DVB-Т, любезно предоставлен PavelDAS.
За что ему большое спасибо!
Запись потока *.ts с наземного цифрового телеканала "Беларусь 3", ремукс в *.mkv программой VideoReDo.
Сведение звука без перекодировки mkvtoolnix
Сэмпл: http://multi-up.com/1078934
качество: DVB-AVC
формат: MKV
Видео: MPEG4 Video (H264) 720x576 (49:36) 25fps, 2 187 Kbps
Аудио: MPEG Audio 48000Hz stereo 256kbps

MediaInfo

General
Unique ID : 220749086303279498898054551650961671741 (0xA612BA40C443E84D957BD550D083463D)
Complete name : D:\Новая земля 2\001 Документальный фильмы\Личности\Пантелеймон Пономаренко (2008)\Пантелеймон Пономаренко_2008.mkv
Format : Matroska
Format version : Version 4 / Version 2
File size : 894 MiB
Duration : 50mn 7s
Overall bit rate : 2 493 Kbps
Encoded date : UTC 2015-12-10 14:49:30
Writing application : mkvmerge v8.5.1 ('Where you lead I will follow') 32bit
Writing library : libebml v1.3.3 + libmatroska v1.4.4
Video
ID : 1
Format : AVC
Format/Info : Advanced Video Codec
Format profile : Main@L3.0
Format settings, CABAC : Yes
Format settings, ReFrames : 4 frames
Format settings, GOP : M=4, N=24
Codec ID : V_MPEG4/ISO/AVC
Duration : 50mn 7s
Bit rate : 2 187 Kbps
Width : 720 pixels
Height : 576 pixels
Display aspect ratio : 4:3
Original display aspect ratio : 4:3
Frame rate mode : Constant
Frame rate : 25.000 fps
Standard : PAL
Color space : YUV
Chroma subsampling : 4:2:0
Bit depth : 8 bits
Scan type : MBAFF
Scan order : Top Field First
Bits/(Pixel*Frame) : 0.211
Stream size : 784 MiB (88%)
Default : Yes
Forced : No
Color primaries : BT.601 PAL
Transfer characteristics : BT.470 System B, BT.470 System G
Matrix coefficients : BT.601
Color range : Limited
DURATION : 00:50:07.000000000
NUMBER_OF_FRAMES : 75175
NUMBER_OF_BYTES : 839930931
_STATISTICS_WRITING_APP : mkvmerge v8.5.1 ('Where you lead I will follow') 32bit
_STATISTICS_WRITING_DATE_UTC : 2015-12-10 14:49:30
_STATISTICS_TAGS : BPS DURATION NUMBER_OF_FRAMES NUMBER_OF_BYTES
Audio
ID : 2
Format : MPEG Audio
Format version : Version 1
Format profile : Layer 2
Codec ID : A_MPEG/L2
Codec ID/Hint : MP2
Duration : 50mn 7s
Bit rate mode : Constant
Bit rate : 256 Kbps
Channel(s) : 2 channels
Sampling rate : 48.0 KHz
Compression mode : Lossy
Delay relative to video : 250ms
Stream size : 91.8 MiB (10%)
Language : English
Default : Yes
Forced : No
DURATION : 00:50:06.984000000
NUMBER_OF_FRAMES : 125291
NUMBER_OF_BYTES : 96223488
_STATISTICS_WRITING_APP : mkvmerge v8.5.1 ('Where you lead I will follow') 32bit
_STATISTICS_WRITING_DATE_UTC : 2015-12-10 14:49:30
_STATISTICS_TAGS : BPS DURATION NUMBER_OF_FRAMES NUMBER_OF_BYTES
[teatrix.ru].t22687.torrent 
Торрент: Зарегистрирован [ 2016-03-21 00:58 ] · 483872BBDCD8F97489E4D1FA718F837241EAB3CA

Скачать .torrent

Скачать

18 KB

Статус: проверено
Скачан: 0 раз
Размер: 894 MB
terms.php



Быстрый ответ

Имя:

      
Для отправки сообщений необходимо включить JavaScript
Показать сообщения:    

Текущее время: 04-Дек 21:23

Часовой пояс: UTC + 3


Вы можете начинать темы
Вы можете отвечать на сообщения
Вы не можете редактировать свои сообщения
Вы не можете удалять свои сообщения
Вы не можете голосовать в опросах
Вы не можете прикреплять файлы к сообщениям
Вы можете скачивать файлы