Эгоист / L'egoiste / The Egoist (Жан-Лу Фелисиоли / Jean-Loup Felicioli, Ален Ганьоль / Alain Gagnol) [1996, Франция, гротеск, драма, анимация, короткий метр, HDTV 1080i] VO (АРК-ТВ) + Original (Fre, Deu)


 

[Цитировать]

Эгоист
L'egoïste- Страна: Франция
Жанр: гротеск, драма, анимация, короткий метр
Продолжительность: 00:03:34
Год выпуска: 1996
Перевод: Студийный (одноголосый закадровый) Студия "АРК-ТВ" по заказу канала "МИНИ МУВИ"
Русские субтитры: нет
Режиссёр: Жан-Лу Фелисиоли / Jean-Loup Felicioli, Ален Ганьоль / Alain Gagnol
Роли озвучивали: Жан-Поль Ракодон / Jean-Paul Racodon (Him)
Описание: Гротескный фарс о человеческом эгоизме, доходящем до абсурда. Когда герой фильма встретил ее, то ему показалось, что он смотрится в зеркало – она была так же красива, как он. Но идиллия разрушилась, когда после автомобильной аварии у него стерлось пол-лица. Он уже не смог спокойно смотреть на ее лицо – оно теперь не отражало лица его самого… Этот красивый фильм стилизован под рисунки Пикассо, Шагала, Фернана Леже и, возможно, Модильяни.
Дополнительная информация: Hot Bird (13.0°E) ARTE Français HD DVB-S2
Награды: Гран-при Festival National du Film d'Animation, Marly le Roi (1996); приз за лучшую короткометражку Festival de Bourg en Bresse 1996; приз за лучшую короткометражку Festival d'Espinho (Portugal, 1996); Prix France 3, Festival du Court Métrage de Villeurbanne (1996); 1-й приз за лучший анимационный фильм Dresden Film Festival (1997); приз за лучшую короткометражку Festival d'Oberhaussen (1997); Prix à la Qualité / CNC (1997).

Качество: HDTV 1080i
Формат: TS
Видео: AVC (H.264), 1920х1080 (16:9), 25 fps, ~8600 kbps avg, 8 bit
Аудио 1: AC3, 2 ch, 48 kHz, 192 kbps - русский
Аудио 2: AC3, 2 ch, 48 kHz, 192 kbps - французский
Аудио 3: AC3, 2 ch, 48 kHz, 192 kbps - немецкий
Субтитры: отсутствуют

Подробные технические данные

Общее
Идентификатор : 1 (0x1)
Полное имя : F:\My Torrents 3\[apreder]MINI_MOVIES_10\[apreder]MM_L'egoiste(1996)HDTV.1080i.ts
Формат : MPEG-TS
Размер файла : 247 Мбайт
Продолжительность : 3 м. 34 с.
Режим общего битрейта : Переменный
Общий поток : 9666 Кбит/сек
Максимальный общий битрейт : 35,5 Мбит/сек
Видео
Идентификатор : 4113 (0x1011)
Идентификатор меню : 1 (0x1)
Формат : AVC
Формат/Информация : Advanced Video Codec
Профиль формата : High@L4
Параметр CABAC формата : Да
Параметр ReFrames формата : 4 кадра
Идентификатор кодека : 27
Продолжительность : 3 м. 34 с.
Вид битрейта : Переменный
Битрейт : 8606 Кбит/сек
Максимальный битрейт : 40,0 Мбит/сек
Ширина : 1920 пикселей
Высота : 1080 пикселей
Соотношение сторон : 16:9
Частота кадров : 25,000 кадров/сек
Стандарт вещания : Component
Цветовое пространство : YUV
Субдискретизация насыщенности : 4:2:0
Битовая глубина : 8 бит
Тип развёртки : MBAFF
Порядок развёртки : Верхнее поле первое
Бит/(Пиксели*Кадры) : 0.166
Размер потока : 220 Мбайт (89%)
colour_range : Limited
Основные цвета : BT.601 PAL
Характеристики трансфера : BT.470 System B, BT.470 System G
Коэффициенты матрицы : BT.601
Аудио #1
Идентификатор : 4352 (0x1100)
Идентификатор меню : 1 (0x1)
Формат : AC-3
Формат/Информация : Audio Coding 3
Расширение режима : CM (complete main)
Параметр Endianness формата : Big
Идентификатор кодека : 129
Продолжительность : 3 м. 25 с.
Вид битрейта : Постоянный
Битрейт : 192 Кбит/сек
Каналы : 2 канала
Расположение каналов : Front: L R
Частота : 48,0 КГц
Частота кадров : 31,250 кадров/сек (1536 spf)
Метод сжатия : С потерями
Размер потока : 4,71 Мбайт (2%)
Язык : Russian
Аудио #2
Идентификатор : 4353 (0x1101)
Идентификатор меню : 1 (0x1)
Формат : AC-3
Формат/Информация : Audio Coding 3
Расширение режима : CM (complete main)
Параметр Endianness формата : Big
Идентификатор кодека : 129
Продолжительность : 3 м. 34 с.
Вид битрейта : Постоянный
Битрейт : 192 Кбит/сек
Каналы : 2 канала
Расположение каналов : Front: L R
Частота : 48,0 КГц
Частота кадров : 31,250 кадров/сек (1536 spf)
Метод сжатия : С потерями
Размер потока : 4,90 Мбайт (2%)
Язык : French
Аудио #3
Идентификатор : 4354 (0x1102)
Идентификатор меню : 1 (0x1)
Формат : AC-3
Формат/Информация : Audio Coding 3
Расширение режима : CM (complete main)
Параметр Endianness формата : Big
Идентификатор кодека : 129
Продолжительность : 3 м. 34 с.
Вид битрейта : Постоянный
Битрейт : 192 Кбит/сек
Каналы : 2 канала
Расположение каналов : Front: L R
Частота : 48,0 КГц
Частота кадров : 31,250 кадров/сек (1536 spf)
Метод сжатия : С потерями
Размер потока : 4,90 Мбайт (2%)
Язык : German

Скриншоты

Резервные скриншоты

-



Показать сообщения:    

Текущее время: 05-Дек 05:30

Часовой пояс: UTC + 3


Вы не можете начинать темы
Вы не можете отвечать на сообщения
Вы не можете редактировать свои сообщения
Вы не можете удалять свои сообщения
Вы не можете голосовать в опросах
Вы не можете прикреплять файлы к сообщениям
Вы не можете скачивать файлы