Terry Riley - Autodreamographical Tales - 2010, FLAC (tracks+.cue) lossless


 

[Цитировать]

Terry Riley - Autodreamographical Tales
Жанр: Modern Composition, Minimalism
Страна-производитель диска: USA
Год издания диска: 2010
Издатель (лейбл): Tzadik
Номер по каталогу: TZ 8070
Дата записи: 2006-2010
Аудиокодек: FLAC
Тип рипа: tracks+.cue
Битрейт аудио: lossless
Продолжительность: 01:16:04
Источник: what.cd
сайт-источник/ник/другое: Не помню точно, но кажется с what.cd, автора раздачи конечно же не помню
Наличие сканов в содержимом раздачи: нет
Треклист:
1. Dwarf 2:20
2. Long Bus Ride 1:41
3. See Them Out There 2:20
4. The Miracle 1:51
5. Zuchinni 3:02
6. Black Woman 3:50
7. The Faquir 7:09
8. The War On The Poor 4:27
9. The Hook 1 1:42
10. The Royal 88 8:32
11. A Dervesh In The Nursery 13:50
12. The Hook 2 1:32
13. The Ecstasy 4:33
14. Turning 4:13
15. The Hook 3 1:49
16. Ebony Horns 9:43
17. We Will Meet Again 3:31
Исполнители:
Terry Riley - Piano, All Instruments, Voice

Лог создания рипа

X Lossless Decoder version 20131102 (145.0)
XLD extraction logfile from 2013-11-14 18:20:27 -0500
Terry Riley / Autodreamographical Tales
Used drive : MATSHITA DVD-R UJ-898 (revision HC09)
Media type : Pressed CD
Ripper mode : XLD Secure Ripper
Disable audio cache : OK for the drive with a cache less than 1375KiB
Make use of C2 pointers : NO
Read offset correction : 102
Max retry count : 20
Gap status : Analyzed, Appended (except HTOA)
TOC of the extracted CD
Track | Start | Length | Start sector | End sector
---------------------------------------------------------
1 | 00:00:00 | 02:20:00 | 0 | 10499
2 | 02:20:00 | 01:41:36 | 10500 | 18110
3 | 04:01:36 | 02:19:59 | 18111 | 28594
4 | 06:21:20 | 01:50:64 | 28595 | 36908
5 | 08:12:09 | 03:02:20 | 36909 | 50578
6 | 11:14:29 | 03:49:46 | 50579 | 67799
7 | 15:04:00 | 07:08:74 | 67800 | 99973
8 | 22:12:74 | 04:27:15 | 99974 | 120013
9 | 26:40:14 | 01:42:06 | 120014 | 127669
10 | 28:22:20 | 08:32:11 | 127670 | 166080
11 | 36:54:31 | 13:50:11 | 166081 | 228341
12 | 50:44:42 | 01:31:40 | 228342 | 235206
13 | 52:16:07 | 04:33:23 | 235207 | 255704
14 | 56:49:30 | 04:12:45 | 255705 | 274649
15 | 61:02:00 | 01:48:73 | 274650 | 282822
16 | 62:50:73 | 09:42:54 | 282823 | 326526
17 | 72:33:52 | 03:30:44 | 326527 | 342320
AccurateRip Summary (DiscID: 0028c4c0-022359ba-da11d411)
Track 01 : OK (v1, confidence 2/2)
Track 02 : OK (v1, confidence 2/2)
Track 03 : OK (v1, confidence 2/2)
Track 04 : OK (v1, confidence 2/2)
Track 05 : OK (v1, confidence 2/2)
Track 06 : OK (v1, confidence 2/2)
Track 07 : OK (v1, confidence 2/2)
Track 08 : OK (v1, confidence 2/2)
Track 09 : OK (v1, confidence 2/2)
Track 10 : OK (v1, confidence 2/2)
Track 11 : OK (v1, confidence 2/2)
Track 12 : OK (v1, confidence 2/2)
Track 13 : OK (v1, confidence 2/2)
Track 14 : OK (v1, confidence 2/2)
Track 15 : OK (v1, confidence 2/2)
Track 16 : OK (v1, confidence 2/2)
Track 17 : OK (v1, confidence 2/2)
->All tracks accurately ripped.
All Tracks
Album gain : -3.66 dB
Peak : 0.942169
Statistics
Read error : 0
Jitter error (maybe fixed) : 0
Retry sector count : 0
Damaged sector count : 0
Track 01
Filename : /Users/montchr/Music/out/Terry Riley - Autodreamographical Tales (2010) [FLAC]/01 Dwarf.flac
Pre-gap length : 00:02:00
Track gain : 0.13 dB
Peak : 0.889404
CRC32 hash (test run) : 8959DF5E
CRC32 hash : 8959DF5E
CRC32 hash (skip zero) : 49D910D5
AccurateRip v1 signature : 0D762921
AccurateRip v2 signature : 001A6571
->Accurately ripped (v1, confidence 2/2)
Statistics
Read error : 0
Jitter error (maybe fixed) : 0
Retry sector count : 0
Damaged sector count : 0
Track 02
Filename : /Users/montchr/Music/out/Terry Riley - Autodreamographical Tales (2010) [FLAC]/02 Long Bus Ride.flac
Track gain : -2.75 dB
Peak : 0.888611
CRC32 hash (test run) : 621B7D27
CRC32 hash : 621B7D27
CRC32 hash (skip zero) : 9B078C46
AccurateRip v1 signature : BC962E49
AccurateRip v2 signature : 27C8C9F1
->Accurately ripped (v1, confidence 2/2)
Statistics
Read error : 0
Jitter error (maybe fixed) : 0
Retry sector count : 0
Damaged sector count : 0
Track 03
Filename : /Users/montchr/Music/out/Terry Riley - Autodreamographical Tales (2010) [FLAC]/03 See Them Out There.flac
Track gain : -6.50 dB
Peak : 0.904449
CRC32 hash (test run) : 13AE4A62
CRC32 hash : 13AE4A62
CRC32 hash (skip zero) : EFC151BA
AccurateRip v1 signature : 9E619D32
AccurateRip v2 signature : 3F0A34C0
->Accurately ripped (v1, confidence 2/2)
Statistics
Read error : 0
Jitter error (maybe fixed) : 0
Retry sector count : 0
Damaged sector count : 0
Track 04
Filename : /Users/montchr/Music/out/Terry Riley - Autodreamographical Tales (2010) [FLAC]/04 The Miracle.flac
Track gain : -3.98 dB
Peak : 0.896301
CRC32 hash (test run) : EF8BC157
CRC32 hash : EF8BC157
CRC32 hash (skip zero) : B2D93C79
AccurateRip v1 signature : AC5C8586
AccurateRip v2 signature : 8BC768E0
->Accurately ripped (v1, confidence 2/2)
Statistics
Read error : 0
Jitter error (maybe fixed) : 0
Retry sector count : 0
Damaged sector count : 0
Track 05
Filename : /Users/montchr/Music/out/Terry Riley - Autodreamographical Tales (2010) [FLAC]/05 Zuchinni.flac
Track gain : -2.75 dB
Peak : 0.902649
CRC32 hash (test run) : 3DB8B651
CRC32 hash : 3DB8B651
CRC32 hash (skip zero) : 233BE2BC
AccurateRip v1 signature : 6C35EE4B
AccurateRip v2 signature : 271FE972
->Accurately ripped (v1, confidence 2/2)
Statistics
Read error : 0
Jitter error (maybe fixed) : 0
Retry sector count : 0
Damaged sector count : 0
Track 06
Filename : /Users/montchr/Music/out/Terry Riley - Autodreamographical Tales (2010) [FLAC]/06 Black Woman.flac
Track gain : -4.24 dB
Peak : 0.897461
CRC32 hash (test run) : B6554A51
CRC32 hash : B6554A51
CRC32 hash (skip zero) : 25E84171
AccurateRip v1 signature : 3A734916
AccurateRip v2 signature : EC75CF51
->Accurately ripped (v1, confidence 2/2)
Statistics
Read error : 0
Jitter error (maybe fixed) : 0
Retry sector count : 0
Damaged sector count : 0
Track 07
Filename : /Users/montchr/Music/out/Terry Riley - Autodreamographical Tales (2010) [FLAC]/07 The Faquir.flac
Track gain : 0.99 dB
Peak : 0.883057
CRC32 hash (test run) : 8425832C
CRC32 hash : 8425832C
CRC32 hash (skip zero) : FFD2A2F4
AccurateRip v1 signature : 8C307118
AccurateRip v2 signature : 9BCEE1ED
->Accurately ripped (v1, confidence 2/2)
Statistics
Read error : 0
Jitter error (maybe fixed) : 0
Retry sector count : 0
Damaged sector count : 0
Track 08
Filename : /Users/montchr/Music/out/Terry Riley - Autodreamographical Tales (2010) [FLAC]/08 The War on the Poor.flac
Track gain : -2.96 dB
Peak : 0.891937
CRC32 hash (test run) : B04AACE6
CRC32 hash : B04AACE6
CRC32 hash (skip zero) : 04D94954
AccurateRip v1 signature : C002C8AC
AccurateRip v2 signature : F4076C21
->Accurately ripped (v1, confidence 2/2)
Statistics
Read error : 0
Jitter error (maybe fixed) : 0
Retry sector count : 0
Damaged sector count : 0
Track 09
Filename : /Users/montchr/Music/out/Terry Riley - Autodreamographical Tales (2010) [FLAC]/09 The Hook 1.flac
Pre-gap length : 00:02:19
Track gain : 5.61 dB
Peak : 0.558868
CRC32 hash (test run) : BCBA9D56
CRC32 hash : BCBA9D56
CRC32 hash (skip zero) : 6FBA5B0F
AccurateRip v1 signature : C10711E1
AccurateRip v2 signature : FC39517F
->Accurately ripped (v1, confidence 2/2)
Statistics
Read error : 0
Jitter error (maybe fixed) : 0
Retry sector count : 0
Damaged sector count : 0
Track 10
Filename : /Users/montchr/Music/out/Terry Riley - Autodreamographical Tales (2010) [FLAC]/10 The Royal 88.flac
Track gain : -3.28 dB
Peak : 0.896240
CRC32 hash (test run) : DD2AD050
CRC32 hash : DD2AD050
CRC32 hash (skip zero) : 5BC286C9
AccurateRip v1 signature : 5B120A3E
AccurateRip v2 signature : 5DCFBFEF
->Accurately ripped (v1, confidence 2/2)
Statistics
Read error : 0
Jitter error (maybe fixed) : 0
Retry sector count : 0
Damaged sector count : 0
Track 11
Filename : /Users/montchr/Music/out/Terry Riley - Autodreamographical Tales (2010) [FLAC]/11 A Dervesh in the Nursery.flac
Track gain : -4.04 dB
Peak : 0.905701
CRC32 hash (test run) : C446365C
CRC32 hash : C446365C
CRC32 hash (skip zero) : 75AFACE3
AccurateRip v1 signature : F1BB26AB
AccurateRip v2 signature : 69E5B5AA
->Accurately ripped (v1, confidence 2/2)
Statistics
Read error : 0
Jitter error (maybe fixed) : 0
Retry sector count : 0
Damaged sector count : 0
Track 12
Filename : /Users/montchr/Music/out/Terry Riley - Autodreamographical Tales (2010) [FLAC]/12 The Hook 2.flac
Track gain : 7.02 dB
Peak : 0.534790
CRC32 hash (test run) : 632F57BF
CRC32 hash : 632F57BF
CRC32 hash (skip zero) : 9051B73D
AccurateRip v1 signature : 0A4D0777
AccurateRip v2 signature : 05F0B6E0
->Accurately ripped (v1, confidence 2/2)
Statistics
Read error : 0
Jitter error (maybe fixed) : 0
Retry sector count : 0
Damaged sector count : 0
Track 13
Filename : /Users/montchr/Music/out/Terry Riley - Autodreamographical Tales (2010) [FLAC]/13 The Ecstacy.flac
Track gain : -4.30 dB
Peak : 0.895691
CRC32 hash (test run) : BC322F1C
CRC32 hash : BC322F1C
CRC32 hash (skip zero) : 24273707
AccurateRip v1 signature : 47401850
AccurateRip v2 signature : 332D3AE0
->Accurately ripped (v1, confidence 2/2)
Statistics
Read error : 0
Jitter error (maybe fixed) : 0
Retry sector count : 0
Damaged sector count : 0
Track 14
Filename : /Users/montchr/Music/out/Terry Riley - Autodreamographical Tales (2010) [FLAC]/14 Turning.flac
Track gain : -0.96 dB
Peak : 0.849121
CRC32 hash (test run) : 58E351C5
CRC32 hash : 58E351C5
CRC32 hash (skip zero) : 94BD8BBD
AccurateRip v1 signature : EAC5369C
AccurateRip v2 signature : A467CB26
->Accurately ripped (v1, confidence 2/2)
Statistics
Read error : 0
Jitter error (maybe fixed) : 0
Retry sector count : 0
Damaged sector count : 0
Track 15
Filename : /Users/montchr/Music/out/Terry Riley - Autodreamographical Tales (2010) [FLAC]/15 The Hook 3.flac
Track gain : 8.79 dB
Peak : 0.365967
CRC32 hash (test run) : 1EE312C9
CRC32 hash : 1EE312C9
CRC32 hash (skip zero) : 571EA534
AccurateRip v1 signature : FB2300BD
AccurateRip v2 signature : 32551145
->Accurately ripped (v1, confidence 2/2)
Statistics
Read error : 0
Jitter error (maybe fixed) : 0
Retry sector count : 0
Damaged sector count : 0
Track 16
Filename : /Users/montchr/Music/out/Terry Riley - Autodreamographical Tales (2010) [FLAC]/16 Ebony Horns.flac
Track gain : -3.36 dB
Peak : 0.942169
CRC32 hash (test run) : 254C941C
CRC32 hash : 254C941C
CRC32 hash (skip zero) : 9A30FC2E
AccurateRip v1 signature : C92A97D2
AccurateRip v2 signature : 279F6773
->Accurately ripped (v1, confidence 2/2)
Statistics
Read error : 0
Jitter error (maybe fixed) : 0
Retry sector count : 0
Damaged sector count : 0
Track 17
Filename : /Users/montchr/Music/out/Terry Riley - Autodreamographical Tales (2010) [FLAC]/17 We Will Meet Again.flac
Track gain : -1.79 dB
Peak : 0.738159
CRC32 hash (test run) : 33850E42
CRC32 hash : 33850E42
CRC32 hash (skip zero) : 5FF5D8EC
AccurateRip v1 signature : 1C988D18
AccurateRip v2 signature : 11FFA341
->Accurately ripped (v1, confidence 2/2)
Statistics
Read error : 0
Jitter error (maybe fixed) : 0
Retry sector count : 0
Damaged sector count : 0
No errors occurred
End of status report

Содержание индексной карты (.CUE)

TITLE "Autodreamographical Tales"
PERFORMER "Terry Riley"
REM DATE "2010-02"
REM DISCID DA11D411
REM REPLAYGAIN_ALBUM_GAIN -3.66 dB
REM REPLAYGAIN_ALBUM_PEAK 0.942169
FILE "01 Dwarf.flac" WAVE
TRACK 01 AUDIO
TITLE "Dwarf"
PERFORMER "Terry Riley"
REM REPLAYGAIN_TRACK_GAIN 0.13 dB
REM REPLAYGAIN_TRACK_PEAK 0.889404
INDEX 01 00:00:00
FILE "02 Long Bus Ride.flac" WAVE
TRACK 02 AUDIO
TITLE "Long Bus Ride"
PERFORMER "Terry Riley"
REM REPLAYGAIN_TRACK_GAIN -2.75 dB
REM REPLAYGAIN_TRACK_PEAK 0.888611
INDEX 01 00:00:00
FILE "03 See Them Out There.flac" WAVE
TRACK 03 AUDIO
TITLE "See Them Out There"
PERFORMER "Terry Riley"
REM REPLAYGAIN_TRACK_GAIN -6.50 dB
REM REPLAYGAIN_TRACK_PEAK 0.904449
INDEX 01 00:00:00
FILE "04 The Miracle.flac" WAVE
TRACK 04 AUDIO
TITLE "The Miracle"
PERFORMER "Terry Riley"
REM REPLAYGAIN_TRACK_GAIN -3.98 dB
REM REPLAYGAIN_TRACK_PEAK 0.896301
INDEX 01 00:00:00
FILE "05 Zuchinni.flac" WAVE
TRACK 05 AUDIO
TITLE "Zuchinni"
PERFORMER "Terry Riley"
REM REPLAYGAIN_TRACK_GAIN -2.75 dB
REM REPLAYGAIN_TRACK_PEAK 0.902649
INDEX 01 00:00:00
FILE "06 Black Woman.flac" WAVE
TRACK 06 AUDIO
TITLE "Black Woman"
PERFORMER "Terry Riley"
REM REPLAYGAIN_TRACK_GAIN -4.24 dB
REM REPLAYGAIN_TRACK_PEAK 0.897461
INDEX 01 00:00:00
FILE "07 The Faquir.flac" WAVE
TRACK 07 AUDIO
TITLE "The Faquir"
PERFORMER "Terry Riley"
REM REPLAYGAIN_TRACK_GAIN 0.99 dB
REM REPLAYGAIN_TRACK_PEAK 0.883057
INDEX 01 00:00:00
FILE "08 The War on the Poor.flac" WAVE
TRACK 08 AUDIO
TITLE "The War on the Poor"
PERFORMER "Terry Riley"
REM REPLAYGAIN_TRACK_GAIN -2.96 dB
REM REPLAYGAIN_TRACK_PEAK 0.891937
INDEX 01 00:00:00
TRACK 09 AUDIO
TITLE "The Hook 1"
PERFORMER "Terry Riley"
REM REPLAYGAIN_TRACK_GAIN 5.61 dB
REM REPLAYGAIN_TRACK_PEAK 0.558868
INDEX 00 04:24:71
FILE "09 The Hook 1.flac" WAVE
INDEX 01 00:00:00
FILE "10 The Royal 88.flac" WAVE
TRACK 10 AUDIO
TITLE "The Royal 88"
PERFORMER "Terry Riley"
REM REPLAYGAIN_TRACK_GAIN -3.28 dB
REM REPLAYGAIN_TRACK_PEAK 0.896240
INDEX 01 00:00:00
FILE "11 A Dervesh in the Nursery.flac" WAVE
TRACK 11 AUDIO
TITLE "A Dervesh in the Nursery"
PERFORMER "Terry Riley"
REM REPLAYGAIN_TRACK_GAIN -4.04 dB
REM REPLAYGAIN_TRACK_PEAK 0.905701
INDEX 01 00:00:00
FILE "12 The Hook 2.flac" WAVE
TRACK 12 AUDIO
TITLE "The Hook 2"
PERFORMER "Terry Riley"
REM REPLAYGAIN_TRACK_GAIN 7.02 dB
REM REPLAYGAIN_TRACK_PEAK 0.534790
INDEX 01 00:00:00
FILE "13 The Ecstacy.flac" WAVE
TRACK 13 AUDIO
TITLE "The Ecstacy"
PERFORMER "Terry Riley"
REM REPLAYGAIN_TRACK_GAIN -4.30 dB
REM REPLAYGAIN_TRACK_PEAK 0.895691
INDEX 01 00:00:00
FILE "14 Turning.flac" WAVE
TRACK 14 AUDIO
TITLE "Turning"
PERFORMER "Terry Riley"
REM REPLAYGAIN_TRACK_GAIN -0.96 dB
REM REPLAYGAIN_TRACK_PEAK 0.849121
INDEX 01 00:00:00
FILE "15 The Hook 3.flac" WAVE
TRACK 15 AUDIO
TITLE "The Hook 3"
PERFORMER "Terry Riley"
REM REPLAYGAIN_TRACK_GAIN 8.79 dB
REM REPLAYGAIN_TRACK_PEAK 0.365967
INDEX 01 00:00:00
FILE "16 Ebony Horns.flac" WAVE
TRACK 16 AUDIO
TITLE "Ebony Horns"
PERFORMER "Terry Riley"
REM REPLAYGAIN_TRACK_GAIN -3.36 dB
REM REPLAYGAIN_TRACK_PEAK 0.942169
INDEX 01 00:00:00
FILE "17 We Will Meet Again.flac" WAVE
TRACK 17 AUDIO
TITLE "We Will Meet Again"
PERFORMER "Terry Riley"
REM REPLAYGAIN_TRACK_GAIN -1.79 dB
REM REPLAYGAIN_TRACK_PEAK 0.738159
INDEX 01 00:00:00
Доп. информация: One of the most influential musicians on the planet, Terry Riley is the father of both minimalism and the downtown scene, having incorporated improvisation into his work from as far back as the early 1960s. This project, a musical dream diary, was created in 1996 and features Terry playing and telling stories from his unconscious. Coupled with his legendary Hook Lecture from Sydney, Australia, Autodreamographical Tales is unique in the Riley discography—a CD of spoken word with music. Incredibly evocative musical backgrounds highlight these strange stories read with eloquence and panache by one of most important musical figures of the late 20th century. At 75, still writing and performing with incredible power, magic and love, Terry Riley remains THE MAN—the hippest, coolest cat around.



Показать сообщения:    

Текущее время: 06-Дек 15:12

Часовой пояс: UTC + 3


Вы не можете начинать темы
Вы не можете отвечать на сообщения
Вы не можете редактировать свои сообщения
Вы не можете удалять свои сообщения
Вы не можете голосовать в опросах
Вы не можете прикреплять файлы к сообщениям
Вы не можете скачивать файлы