(Classical) Ludwig van Beethoven — The 10 Violin Sonatas (Yehudi Menuhin, Louis Kentner) — 2001, FLAC (tracks+.cue) lossless


 

[Цитировать]

The 10 Violin Sonatas-
Жанр: Classical
Страна-производитель комплекта: Великобритания
Год издания комплекта: 2001
Годы записи фонограмм: 1952-1955 (London)
Издатель (лейбл): EMI Classics
Номер по каталогу: 7243 5 74804 2 0
Композитор: Ludwig van Beethoven
Исполнители: Yehudi Menuhin, violin; Louis Kentner, piano
Аудио кодек: flac
Тип рипа: tracks+.cue
Битрейт аудио: lossless
Продолжительность: 03h49'46"
Источник: What.CD
Наличие сканов в содержимом раздачи: да-

Треклист

CD1 – 01h19'30"
(01-03) Violin Sonata № 1 D-Dur Op 12/1 [19'11"]
(04-06) Violin Sonata № 2 A-Dur Op 12/2 [17'39"]
(07-09) Violin Sonata № 3 Es-Dur Op 12/3 [18'14"]
(10-12) Violin Sonata № 6 A-Dur Op 30/3 [24'26"]-

XLD log

X Lossless Decoder version 20141129a (148.2)
[br]
XLD extraction logfile from 2015-11-24 13:44:54 -0500
[br]
Yehudi Menuhin, Louis Kentner / Beethoven: The 10 Violin Sonatas
[br]
Used drive : MATSHITA DVD-R   UJ-8A8 (revision HA13)
Media type : Pressed CD
[br]
Ripper mode             : XLD Secure Ripper
Disable audio cache     : OK for the drive with a cache less than 1375KiB
Make use of C2 pointers : NO
Read offset correction  : 102
Max retry count         : 20
Gap status              : Analyzed, Appended (except HTOA)
[br]
TOC of the extracted CD
Track |   Start  |  Length  | Start sector | End sector
---------------------------------------------------------
1  | 00:00:00 | 06:10:46 |         0    |    27795
2  | 06:10:46 | 08:02:48 |     27796    |    63993
3  | 14:13:19 | 04:57:27 |     63994    |    86295
4  | 19:10:46 | 06:49:37 |     86296    |   117007
5  | 26:00:08 | 06:07:08 |    117008    |   144540
6  | 32:07:16 | 04:42:38 |    144541    |   165728
7  | 36:49:54 | 06:18:09 |    165729    |   194087
8  | 43:07:63 | 07:35:33 |    194088    |   228245
9  | 50:43:21 | 04:20:40 |    228246    |   247785
10  | 55:03:61 | 07:29:41 |    247786    |   281501
11  | 62:33:27 | 08:33:51 |    281502    |   320027
12  | 71:07:03 | 08:22:52 |    320028    |   357729
[br]
AccurateRip Summary (DiscID: 00221978-013e8fda-aa12a10c)
Track 01 : OK (v1+v2, confidence 4/4)
Track 02 : OK (v1+v2, confidence 4/4)
Track 03 : OK (v1+v2, confidence 4/4)
Track 04 : OK (v1+v2, confidence 4/4)
Track 05 : OK (v1+v2, confidence 4/4)
Track 06 : OK (v1+v2, confidence 4/4)
Track 07 : OK (v1+v2, confidence 4/4)
Track 08 : OK (v2, confidence 2/2)
Track 09 : OK (v1+v2, confidence 4/4)
Track 10 : OK (v1+v2, confidence 4/4)
Track 11 : OK (v2, confidence 2/2)
Track 12 : OK (v1+v2, confidence 4/4)
->All tracks accurately ripped.
[br]
All Tracks
Album gain               : 2.87 dB
Peak                     : 0.707916
Statistics
Read error                           : 0
Jitter error (maybe fixed)           : 0
Retry sector count                   : 0
Damaged sector count                 : 0
[br]
Track 01
Filename : /Volumes/Seagate Backup/Downloads/What.cd/To Upload/Beethoven - The 10 Violin Sonatas (Menuhin, Kentner) - 2002 [FLAC]/Disc 01/01 - Sonata No. 1 in D major, Op. 12 No. 1 - I. Allegro con brio.flac
/Volumes/Seagate Backup/Downloads/What.cd/To Upload/Beethoven - The 10 Violin Sonatas (Menuhin, Kentner) - 2002 [V0]/Disc 01/01 - Sonata No. 1 in D major, Op. 12 No. 1 - I. Allegro con brio.mp3
/Volumes/Seagate Backup/Downloads/What.cd/To Upload/Beethoven - The 10 Violin Sonatas (Menuhin, Kentner) - 2002 [320]/Disc 01/01 - Sonata No. 1 in D major, Op. 12 No. 1 - I. Allegro con brio.mp3
Pre-gap length : 00:02:00
[br]
Track gain               : 1.46 dB
Peak                     : 0.670227
CRC32 hash (test run)    : 8AAB73BC
CRC32 hash               : 8AAB73BC
CRC32 hash (skip zero)   : 74FD0E69
AccurateRip v1 signature : A302579E
AccurateRip v2 signature : 3BD9D16F
->Accurately ripped (v1+v2, confidence 2+2/4)
Statistics
Read error                           : 0
Jitter error (maybe fixed)           : 0
Retry sector count                   : 0
Damaged sector count                 : 0
[br]
Track 02
Filename : /Volumes/Seagate Backup/Downloads/What.cd/To Upload/Beethoven - The 10 Violin Sonatas (Menuhin, Kentner) - 2002 [FLAC]/Disc 01/02 - Sonata No. 1 in D major, Op. 12 No. 1 - II. Tema (Andante con moto) con variazioni I-IV.flac
/Volumes/Seagate Backup/Downloads/What.cd/To Upload/Beethoven - The 10 Violin Sonatas (Menuhin, Kentner) - 2002 [V0]/Disc 01/02 - Sonata No. 1 in D major, Op. 12 No. 1 - II. Tema (Andante con moto) con variazioni I-IV.mp3
/Volumes/Seagate Backup/Downloads/What.cd/To Upload/Beethoven - The 10 Violin Sonatas (Menuhin, Kentner) - 2002 [320]/Disc 01/02 - Sonata No. 1 in D major, Op. 12 No. 1 - II. Tema (Andante con moto) con variazioni I-IV.mp3
Pre-gap length : 00:02:12
[br]
Track gain               : 4.43 dB
Peak                     : 0.497192
CRC32 hash (test run)    : 277630B5
CRC32 hash               : 277630B5
CRC32 hash (skip zero)   : 102FEC07
AccurateRip v1 signature : EE443C3E
AccurateRip v2 signature : 0FC29680
->Accurately ripped (v1+v2, confidence 2+2/4)
Statistics
Read error                           : 0
Jitter error (maybe fixed)           : 0
Retry sector count                   : 0
Damaged sector count                 : 0
[br]
Track 03
Filename : /Volumes/Seagate Backup/Downloads/What.cd/To Upload/Beethoven - The 10 Violin Sonatas (Menuhin, Kentner) - 2002 [FLAC]/Disc 01/03 - Sonata No. 1 in D major, Op. 12 No. 1 - III. Rondo (Allegro).flac
/Volumes/Seagate Backup/Downloads/What.cd/To Upload/Beethoven - The 10 Violin Sonatas (Menuhin, Kentner) - 2002 [V0]/Disc 01/03 - Sonata No. 1 in D major, Op. 12 No. 1 - III. Rondo (Allegro).mp3
/Volumes/Seagate Backup/Downloads/What.cd/To Upload/Beethoven - The 10 Violin Sonatas (Menuhin, Kentner) - 2002 [320]/Disc 01/03 - Sonata No. 1 in D major, Op. 12 No. 1 - III. Rondo (Allegro).mp3
Pre-gap length : 00:02:36
[br]
Track gain               : 4.02 dB
Peak                     : 0.513153
CRC32 hash (test run)    : 73E59997
CRC32 hash               : 73E59997
CRC32 hash (skip zero)   : D965253F
AccurateRip v1 signature : 29DBED18
AccurateRip v2 signature : 4406C857
->Accurately ripped (v1+v2, confidence 2+2/4)
Statistics
Read error                           : 0
Jitter error (maybe fixed)           : 0
Retry sector count                   : 0
Damaged sector count                 : 0
[br]
Track 04
Filename : /Volumes/Seagate Backup/Downloads/What.cd/To Upload/Beethoven - The 10 Violin Sonatas (Menuhin, Kentner) - 2002 [FLAC]/Disc 01/04 - Sonata No. 2 in A major, Op. 12 No. 2 - I. Allegro vivace.flac
/Volumes/Seagate Backup/Downloads/What.cd/To Upload/Beethoven - The 10 Violin Sonatas (Menuhin, Kentner) - 2002 [V0]/Disc 01/04 - Sonata No. 2 in A major, Op. 12 No. 2 - I. Allegro vivace.mp3
/Volumes/Seagate Backup/Downloads/What.cd/To Upload/Beethoven - The 10 Violin Sonatas (Menuhin, Kentner) - 2002 [320]/Disc 01/04 - Sonata No. 2 in A major, Op. 12 No. 2 - I. Allegro vivace.mp3
Pre-gap length : 00:04:17
[br]
Track gain               : 0.35 dB
Peak                     : 0.707916
CRC32 hash (test run)    : DA04A8FE
CRC32 hash               : DA04A8FE
CRC32 hash (skip zero)   : AA240B5D
AccurateRip v1 signature : B768EDF2
AccurateRip v2 signature : 81EE95DA
->Accurately ripped (v1+v2, confidence 2+2/4)
Statistics
Read error                           : 0
Jitter error (maybe fixed)           : 0
Retry sector count                   : 0
Damaged sector count                 : 0
[br]
Track 05
Filename : /Volumes/Seagate Backup/Downloads/What.cd/To Upload/Beethoven - The 10 Violin Sonatas (Menuhin, Kentner) - 2002 [FLAC]/Disc 01/05 - Sonata No. 2 in A major, Op. 12 No. 2 - II. Andante, piГ№ tosto allegretto.flac
/Volumes/Seagate Backup/Downloads/What.cd/To Upload/Beethoven - The 10 Violin Sonatas (Menuhin, Kentner) - 2002 [V0]/Disc 01/05 - Sonata No. 2 in A major, Op. 12 No. 2 - II. Andante, piГ№ tosto allegretto.mp3
/Volumes/Seagate Backup/Downloads/What.cd/To Upload/Beethoven - The 10 Violin Sonatas (Menuhin, Kentner) - 2002 [320]/Disc 01/05 - Sonata No. 2 in A major, Op. 12 No. 2 - II. Andante, piГ№ tosto allegretto.mp3
Pre-gap length : 00:02:05
[br]
Track gain               : 4.04 dB
Peak                     : 0.617981
CRC32 hash (test run)    : 576C7285
CRC32 hash               : 576C7285
CRC32 hash (skip zero)   : BFC74147
AccurateRip v1 signature : 8DEB5071
AccurateRip v2 signature : A2880B08
->Accurately ripped (v1+v2, confidence 2+2/4)
Statistics
Read error                           : 0
Jitter error (maybe fixed)           : 0
Retry sector count                   : 0
Damaged sector count                 : 0
[br]
Track 06
Filename : /Volumes/Seagate Backup/Downloads/What.cd/To Upload/Beethoven - The 10 Violin Sonatas (Menuhin, Kentner) - 2002 [FLAC]/Disc 01/06 - Sonata No. 2 in A major, Op. 12 No. 2 - III. Allegro piacevole.flac
/Volumes/Seagate Backup/Downloads/What.cd/To Upload/Beethoven - The 10 Violin Sonatas (Menuhin, Kentner) - 2002 [V0]/Disc 01/06 - Sonata No. 2 in A major, Op. 12 No. 2 - III. Allegro piacevole.mp3
/Volumes/Seagate Backup/Downloads/What.cd/To Upload/Beethoven - The 10 Violin Sonatas (Menuhin, Kentner) - 2002 [320]/Disc 01/06 - Sonata No. 2 in A major, Op. 12 No. 2 - III. Allegro piacevole.mp3
Pre-gap length : 00:01:13
[br]
Track gain               : 0.94 dB
Peak                     : 0.644684
CRC32 hash (test run)    : 5EA6CC8F
CRC32 hash               : 5EA6CC8F
CRC32 hash (skip zero)   : C43C6FA5
AccurateRip v1 signature : C9D75B46
AccurateRip v2 signature : 2ECEABE9
->Accurately ripped (v1+v2, confidence 2+2/4)
Statistics
Read error                           : 0
Jitter error (maybe fixed)           : 0
Retry sector count                   : 0
Damaged sector count                 : 0
[br]
Track 07
Filename : /Volumes/Seagate Backup/Downloads/What.cd/To Upload/Beethoven - The 10 Violin Sonatas (Menuhin, Kentner) - 2002 [FLAC]/Disc 01/07 - Sonata No. 3 in E-flat major, Op. 12 No. 3 - I. Allegro con spirito.flac
/Volumes/Seagate Backup/Downloads/What.cd/To Upload/Beethoven - The 10 Violin Sonatas (Menuhin, Kentner) - 2002 [V0]/Disc 01/07 - Sonata No. 3 in E-flat major, Op. 12 No. 3 - I. Allegro con spirito.mp3
/Volumes/Seagate Backup/Downloads/What.cd/To Upload/Beethoven - The 10 Violin Sonatas (Menuhin, Kentner) - 2002 [320]/Disc 01/07 - Sonata No. 3 in E-flat major, Op. 12 No. 3 - I. Allegro con spirito.mp3
Pre-gap length : 00:04:38
[br]
Track gain               : 1.15 dB
Peak                     : 0.635284
CRC32 hash (test run)    : 22DAC507
CRC32 hash               : 22DAC507
CRC32 hash (skip zero)   : 0F1AE8B8
AccurateRip v1 signature : EA522EB8
AccurateRip v2 signature : 23BAF383
->Accurately ripped (v1+v2, confidence 2+2/4)
Statistics
Read error                           : 0
Jitter error (maybe fixed)           : 0
Retry sector count                   : 0
Damaged sector count                 : 0
[br]
Track 08
Filename : /Volumes/Seagate Backup/Downloads/What.cd/To Upload/Beethoven - The 10 Violin Sonatas (Menuhin, Kentner) - 2002 [FLAC]/Disc 01/08 - Sonata No. 3 in E-flat major, Op. 12 No. 3 - II. Adagio con molto espressione.flac
/Volumes/Seagate Backup/Downloads/What.cd/To Upload/Beethoven - The 10 Violin Sonatas (Menuhin, Kentner) - 2002 [V0]/Disc 01/08 - Sonata No. 3 in E-flat major, Op. 12 No. 3 - II. Adagio con molto espressione.mp3
/Volumes/Seagate Backup/Downloads/What.cd/To Upload/Beethoven - The 10 Violin Sonatas (Menuhin, Kentner) - 2002 [320]/Disc 01/08 - Sonata No. 3 in E-flat major, Op. 12 No. 3 - II. Adagio con molto espressione.mp3
Pre-gap length : 00:02:27
[br]
Track gain               : 7.70 dB
Peak                     : 0.627106
CRC32 hash (test run)    : ABC5B9B0
CRC32 hash               : ABC5B9B0
CRC32 hash (skip zero)   : 49F0DE74
AccurateRip v1 signature : 55F3D73B
AccurateRip v2 signature : B8B0C007
->Accurately ripped (v2, confidence 2/2)
Statistics
Read error                           : 0
Jitter error (maybe fixed)           : 0
Retry sector count                   : 0
Damaged sector count                 : 0
[br]
Track 09
Filename : /Volumes/Seagate Backup/Downloads/What.cd/To Upload/Beethoven - The 10 Violin Sonatas (Menuhin, Kentner) - 2002 [FLAC]/Disc 01/09 - Sonata No. 3 in E-flat major, Op. 12 No. 3 - III. Rondo (Allegro molto).flac
/Volumes/Seagate Backup/Downloads/What.cd/To Upload/Beethoven - The 10 Violin Sonatas (Menuhin, Kentner) - 2002 [V0]/Disc 01/09 - Sonata No. 3 in E-flat major, Op. 12 No. 3 - III. Rondo (Allegro molto).mp3
/Volumes/Seagate Backup/Downloads/What.cd/To Upload/Beethoven - The 10 Violin Sonatas (Menuhin, Kentner) - 2002 [320]/Disc 01/09 - Sonata No. 3 in E-flat major, Op. 12 No. 3 - III. Rondo (Allegro molto).mp3
Pre-gap length : 00:03:54
[br]
Track gain               : 1.33 dB
Peak                     : 0.645477
CRC32 hash (test run)    : 02E90DA9
CRC32 hash               : 02E90DA9
CRC32 hash (skip zero)   : D172B7C2
AccurateRip v1 signature : CAD2AB37
AccurateRip v2 signature : A8CC9A3F
->Accurately ripped (v1+v2, confidence 2+2/4)
Statistics
Read error                           : 0
Jitter error (maybe fixed)           : 0
Retry sector count                   : 0
Damaged sector count                 : 0
[br]
Track 10
Filename : /Volumes/Seagate Backup/Downloads/What.cd/To Upload/Beethoven - The 10 Violin Sonatas (Menuhin, Kentner) - 2002 [FLAC]/Disc 01/10 - Sonata No. 6 in A major, Op. 30 No. 1 - I. Allegro.flac
/Volumes/Seagate Backup/Downloads/What.cd/To Upload/Beethoven - The 10 Violin Sonatas (Menuhin, Kentner) - 2002 [V0]/Disc 01/10 - Sonata No. 6 in A major, Op. 30 No. 1 - I. Allegro.mp3
/Volumes/Seagate Backup/Downloads/What.cd/To Upload/Beethoven - The 10 Violin Sonatas (Menuhin, Kentner) - 2002 [320]/Disc 01/10 - Sonata No. 6 in A major, Op. 30 No. 1 - I. Allegro.mp3
Pre-gap length : 00:04:26
[br]
Track gain               : 3.70 dB
Peak                     : 0.434113
CRC32 hash (test run)    : 08D22BC7
CRC32 hash               : 08D22BC7
CRC32 hash (skip zero)   : 04065A77
AccurateRip v1 signature : 9081AD48
AccurateRip v2 signature : 2444BFAB
->Accurately ripped (v1+v2, confidence 2+2/4)
Statistics
Read error                           : 0
Jitter error (maybe fixed)           : 0
Retry sector count                   : 0
Damaged sector count                 : 0
[br]
Track 11
Filename : /Volumes/Seagate Backup/Downloads/What.cd/To Upload/Beethoven - The 10 Violin Sonatas (Menuhin, Kentner) - 2002 [FLAC]/Disc 01/11 - Sonata No. 6 in A major, Op. 30 No. 1 - II. Adagio molto espressivo.flac
/Volumes/Seagate Backup/Downloads/What.cd/To Upload/Beethoven - The 10 Violin Sonatas (Menuhin, Kentner) - 2002 [V0]/Disc 01/11 - Sonata No. 6 in A major, Op. 30 No. 1 - II. Adagio molto espressivo.mp3
/Volumes/Seagate Backup/Downloads/What.cd/To Upload/Beethoven - The 10 Violin Sonatas (Menuhin, Kentner) - 2002 [320]/Disc 01/11 - Sonata No. 6 in A major, Op. 30 No. 1 - II. Adagio molto espressivo.mp3
Pre-gap length : 00:02:54
[br]
Track gain               : 7.66 dB
Peak                     : 0.340515
CRC32 hash (test run)    : 00D33C79
CRC32 hash               : 00D33C79
CRC32 hash (skip zero)   : 9A8FAE5B
AccurateRip v1 signature : 90D56027
AccurateRip v2 signature : 40B52A7C
->Accurately ripped (v2, confidence 2/2)
Statistics
Read error                           : 0
Jitter error (maybe fixed)           : 0
Retry sector count                   : 0
Damaged sector count                 : 0
[br]
Track 12
Filename : /Volumes/Seagate Backup/Downloads/What.cd/To Upload/Beethoven - The 10 Violin Sonatas (Menuhin, Kentner) - 2002 [FLAC]/Disc 01/12 - Sonata No. 6 in A major, Op. 30 No. 1 - III. Allegretto con variazioni I-IV.flac
/Volumes/Seagate Backup/Downloads/What.cd/To Upload/Beethoven - The 10 Violin Sonatas (Menuhin, Kentner) - 2002 [V0]/Disc 01/12 - Sonata No. 6 in A major, Op. 30 No. 1 - III. Allegretto con variazioni I-IV.mp3
/Volumes/Seagate Backup/Downloads/What.cd/To Upload/Beethoven - The 10 Violin Sonatas (Menuhin, Kentner) - 2002 [320]/Disc 01/12 - Sonata No. 6 in A major, Op. 30 No. 1 - III. Allegretto con variazioni I-IV.mp3
Pre-gap length : 00:01:22
[br]
Track gain               : 4.35 dB
Peak                     : 0.480621
CRC32 hash (test run)    : B638F715
CRC32 hash               : B638F715
CRC32 hash (skip zero)   : CDDD9F93
AccurateRip v1 signature : C437CD7F
AccurateRip v2 signature : 65DBA48F
->Accurately ripped (v1+v2, confidence 2+2/4)
Statistics
Read error                           : 0
Jitter error (maybe fixed)           : 0
Retry sector count                   : 0
Damaged sector count                 : 0
[br]
No errors occurred
[br]
End of status report
[br]
-----BEGIN XLD SIGNATURE-----
6GbXOulyuFLYgLdDwHMUUBuzW6D7XEpoyDQ2BEYMdFu_8ZPtVWcOriMOBzc39v_SvjhaEXaY.j3FNUCQ5L327rbE_9LWnepuepIm6r4
-----END XLD SIGNATURE-----
-

CUE

TITLE "Beethoven: The 10 Violin Sonatas"
PERFORMER "Yehudi Menuhin, Louis Kentner"
CATALOG 0724357480520
REM GENRE "Classical"
REM DATE "2002"
REM DISCNUMBER 1
REM TOTALDISCS 3
REM DISCID AA12A10C
REM REPLAYGAIN_ALBUM_GAIN 2.87 dB
REM REPLAYGAIN_ALBUM_PEAK 0.707916
FILE "01 - Sonata No. 1 in D major, Op. 12 No. 1 - I. Allegro con brio.flac" WAVE
TRACK 01 AUDIO
TITLE "Sonata No. 1 in D major, Op. 12 No. 1 - I. Allegro con brio"
SONGWRITER "Ludwig van Beethoven"
ISRC GBAYC0101940
REM REPLAYGAIN_TRACK_GAIN 1.46 dB
REM REPLAYGAIN_TRACK_PEAK 0.670227
INDEX 01 00:00:00
TRACK 02 AUDIO
TITLE "Sonata No. 1 in D major, Op. 12 No. 1 - II. Tema (Andante con moto) con variazioni I-IV"
SONGWRITER "Ludwig van Beethoven"
ISRC GBAYC0101941
REM REPLAYGAIN_TRACK_GAIN 4.43 dB
REM REPLAYGAIN_TRACK_PEAK 0.497192
INDEX 00 06:08:34
FILE "02 - Sonata No. 1 in D major, Op. 12 No. 1 - II. Tema (Andante con moto) con variazioni I-IV.flac" WAVE
INDEX 01 00:00:00
TRACK 03 AUDIO
TITLE "Sonata No. 1 in D major, Op. 12 No. 1 - III. Rondo (Allegro)"
SONGWRITER "Ludwig van Beethoven"
ISRC GBAYC0101942
REM REPLAYGAIN_TRACK_GAIN 4.02 dB
REM REPLAYGAIN_TRACK_PEAK 0.513153
INDEX 00 08:00:12
FILE "03 - Sonata No. 1 in D major, Op. 12 No. 1 - III. Rondo (Allegro).flac" WAVE
INDEX 01 00:00:00
TRACK 04 AUDIO
TITLE "Sonata No. 2 in A major, Op. 12 No. 2 - I. Allegro vivace"
SONGWRITER "Ludwig van Beethoven"
ISRC GBAYC0101944
REM REPLAYGAIN_TRACK_GAIN 0.35 dB
REM REPLAYGAIN_TRACK_PEAK 0.707916
INDEX 00 04:53:10
FILE "04 - Sonata No. 2 in A major, Op. 12 No. 2 - I. Allegro vivace.flac" WAVE
INDEX 01 00:00:00
TRACK 05 AUDIO
TITLE "Sonata No. 2 in A major, Op. 12 No. 2 - II. Andante, piГ№ tosto allegretto"
SONGWRITER "Ludwig van Beethoven"
ISRC GBAYC0101945
REM REPLAYGAIN_TRACK_GAIN 4.04 dB
REM REPLAYGAIN_TRACK_PEAK 0.617981
INDEX 00 06:47:32
FILE "05 - Sonata No. 2 in A major, Op. 12 No. 2 - II. Andante, piГ№ tosto allegretto.flac" WAVE
INDEX 01 00:00:00
TRACK 06 AUDIO
TITLE "Sonata No. 2 in A major, Op. 12 No. 2 - III. Allegro piacevole"
SONGWRITER "Ludwig van Beethoven"
ISRC GBAYC0101946
REM REPLAYGAIN_TRACK_GAIN 0.94 dB
REM REPLAYGAIN_TRACK_PEAK 0.644684
INDEX 00 06:05:70
FILE "06 - Sonata No. 2 in A major, Op. 12 No. 2 - III. Allegro piacevole.flac" WAVE
INDEX 01 00:00:00
TRACK 07 AUDIO
TITLE "Sonata No. 3 in E-flat major, Op. 12 No. 3 - I. Allegro con spirito"
SONGWRITER "Ludwig van Beethoven"
ISRC GBAYC0101948
REM REPLAYGAIN_TRACK_GAIN 1.15 dB
REM REPLAYGAIN_TRACK_PEAK 0.635284
INDEX 00 04:38:00
FILE "07 - Sonata No. 3 in E-flat major, Op. 12 No. 3 - I. Allegro con spirito.flac" WAVE
INDEX 01 00:00:00
TRACK 08 AUDIO
TITLE "Sonata No. 3 in E-flat major, Op. 12 No. 3 - II. Adagio con molto espressione"
SONGWRITER "Ludwig van Beethoven"
ISRC GBAYC0101949
REM REPLAYGAIN_TRACK_GAIN 7.70 dB
REM REPLAYGAIN_TRACK_PEAK 0.627106
INDEX 00 06:15:57
FILE "08 - Sonata No. 3 in E-flat major, Op. 12 No. 3 - II. Adagio con molto espressione.flac" WAVE
INDEX 01 00:00:00
TRACK 09 AUDIO
TITLE "Sonata No. 3 in E-flat major, Op. 12 No. 3 - III. Rondo (Allegro molto)"
SONGWRITER "Ludwig van Beethoven"
ISRC GBAYC0101950
REM REPLAYGAIN_TRACK_GAIN 1.33 dB
REM REPLAYGAIN_TRACK_PEAK 0.645477
INDEX 00 07:31:54
FILE "09 - Sonata No. 3 in E-flat major, Op. 12 No. 3 - III. Rondo (Allegro molto).flac" WAVE
INDEX 01 00:00:00
TRACK 10 AUDIO
TITLE "Sonata No. 6 in A major, Op. 30 No. 1 - I. Allegro"
SONGWRITER "Ludwig van Beethoven"
ISRC GBAYC0101952
REM REPLAYGAIN_TRACK_GAIN 3.70 dB
REM REPLAYGAIN_TRACK_PEAK 0.434113
INDEX 00 04:16:14
FILE "10 - Sonata No. 6 in A major, Op. 30 No. 1 - I. Allegro.flac" WAVE
INDEX 01 00:00:00
TRACK 11 AUDIO
TITLE "Sonata No. 6 in A major, Op. 30 No. 1 - II. Adagio molto espressivo"
SONGWRITER "Ludwig van Beethoven"
ISRC GBAYC0101953
REM REPLAYGAIN_TRACK_GAIN 7.66 dB
REM REPLAYGAIN_TRACK_PEAK 0.340515
INDEX 00 07:26:62
FILE "11 - Sonata No. 6 in A major, Op. 30 No. 1 - II. Adagio molto espressivo.flac" WAVE
INDEX 01 00:00:00
TRACK 12 AUDIO
TITLE "Sonata No. 6 in A major, Op. 30 No. 1 - III. Allegretto con variazioni I-IV"
SONGWRITER "Ludwig van Beethoven"
ISRC GBAYC0101954
REM REPLAYGAIN_TRACK_GAIN 4.35 dB
REM REPLAYGAIN_TRACK_PEAK 0.480621
INDEX 00 08:32:29
FILE "12 - Sonata No. 6 in A major, Op. 30 No. 1 - III. Allegretto con variazioni I-IV.flac" WAVE
INDEX 01 00:00:00
-CD2 – 01h15'50"
(01-04) Violin Sonata № 7 c-moll Op 30/2 [27'45"]
(05-07) Violin Sonata № 8 G-Dur Op 30/3 [17'54"]
(08-11) Violin Sonata № 10 G-Dur Op 96 [30'12"]-

XLD log

X Lossless Decoder version 20141129a (148.2)
[br]
XLD extraction logfile from 2015-11-24 15:19:31 -0500
[br]
Yehudi Menuhin, Louis Kentner / Beethoven: The 10 Violin Sonatas
[br]
Used drive : MATSHITA DVD-R   UJ-8A8 (revision HA13)
Media type : Pressed CD
[br]
Ripper mode             : XLD Secure Ripper
Disable audio cache     : OK for the drive with a cache less than 1375KiB
Make use of C2 pointers : NO
Read offset correction  : 102
Max retry count         : 20
Gap status              : Analyzed, Appended (except HTOA)
[br]
TOC of the extracted CD
Track |   Start  |  Length  | Start sector | End sector
---------------------------------------------------------
1  | 00:00:00 | 08:07:12 |         0    |    36536
2  | 08:07:12 | 10:48:42 |     36537    |    85178
3  | 18:55:54 | 03:35:05 |     85179    |   101308
4  | 22:30:59 | 05:13:60 |    101309    |   124843
5  | 27:44:44 | 06:41:67 |    124844    |   154985
6  | 34:26:36 | 07:35:61 |    154986    |   189171
7  | 42:02:22 | 03:35:67 |    189172    |   205363
8  | 45:38:14 | 10:57:45 |    205364    |   254683
9  | 56:35:59 | 07:20:10 |    254684    |   287693
10  | 63:55:69 | 01:47:50 |    287694    |   295768
11  | 65:43:44 | 10:06:37 |    295769    |   341255
[br]
AccurateRip Summary (DiscID: 001fb07a-010f30b7-ab11c60b)
Track 01 : OK (v2, confidence 2/2)
Track 02 : OK (v2, confidence 2/2)
Track 03 : OK (v1+v2, confidence 4/4)
Track 04 : OK (v1+v2, confidence 4/4)
Track 05 : OK (v2, confidence 2/2)
Track 06 : OK (v2, confidence 2/2)
Track 07 : OK (v1+v2, confidence 4/4)
Track 08 : OK (v2, confidence 2/2)
Track 09 : OK (v1+v2, confidence 4/4)
Track 10 : OK (v1+v2, confidence 4/4)
Track 11 : OK (v2, confidence 2/2)
->All tracks accurately ripped.
[br]
All Tracks
Album gain               : 0.92 dB
Peak                     : 0.708038
Statistics
Read error                           : 0
Jitter error (maybe fixed)           : 0
Retry sector count                   : 0
Damaged sector count                 : 0
[br]
Track 01
Filename : /Volumes/Seagate Backup/Downloads/What.cd/To Upload/Beethoven - The 10 Violin Sonatas (Menuhin, Kentner) - 2002 [FLAC]/Disc 02/01 - Sonata No. 7 in C minor, Op. 30 No. 2 - I. Allegro con brio.flac
/Volumes/Seagate Backup/Downloads/What.cd/To Upload/Beethoven - The 10 Violin Sonatas (Menuhin, Kentner) - 2002 [V0]/Disc 02/01 - Sonata No. 7 in C minor, Op. 30 No. 2 - I. Allegro con brio.mp3
/Volumes/Seagate Backup/Downloads/What.cd/To Upload/Beethoven - The 10 Violin Sonatas (Menuhin, Kentner) - 2002 [320]/Disc 02/01 - Sonata No. 7 in C minor, Op. 30 No. 2 - I. Allegro con brio.mp3
Pre-gap length : 00:02:00
[br]
Track gain               : -1.28 dB
Peak                     : 0.671143
CRC32 hash (test run)    : 75203236
CRC32 hash               : 75203236
CRC32 hash (skip zero)   : 0625168B
AccurateRip v1 signature : 495447C4
AccurateRip v2 signature : FF741A99
->Accurately ripped (v2, confidence 2/2)
Statistics
Read error                           : 0
Jitter error (maybe fixed)           : 0
Retry sector count                   : 0
Damaged sector count                 : 0
[br]
Track 02
Filename : /Volumes/Seagate Backup/Downloads/What.cd/To Upload/Beethoven - The 10 Violin Sonatas (Menuhin, Kentner) - 2002 [FLAC]/Disc 02/02 - Sonata No. 7 in C minor, Op. 30 No. 2 - II. Adagio cantabile.flac
/Volumes/Seagate Backup/Downloads/What.cd/To Upload/Beethoven - The 10 Violin Sonatas (Menuhin, Kentner) - 2002 [V0]/Disc 02/02 - Sonata No. 7 in C minor, Op. 30 No. 2 - II. Adagio cantabile.mp3
/Volumes/Seagate Backup/Downloads/What.cd/To Upload/Beethoven - The 10 Violin Sonatas (Menuhin, Kentner) - 2002 [320]/Disc 02/02 - Sonata No. 7 in C minor, Op. 30 No. 2 - II. Adagio cantabile.mp3
Pre-gap length : 00:02:58
[br]
Track gain               : 4.94 dB
Peak                     : 0.708038
CRC32 hash (test run)    : 3368CE53
CRC32 hash               : 3368CE53
CRC32 hash (skip zero)   : 4EF6FE5D
AccurateRip v1 signature : E32EB5AB
AccurateRip v2 signature : 737FAC43
->Accurately ripped (v2, confidence 2/2)
Statistics
Read error                           : 0
Jitter error (maybe fixed)           : 0
Retry sector count                   : 0
Damaged sector count                 : 0
[br]
Track 03
Filename : /Volumes/Seagate Backup/Downloads/What.cd/To Upload/Beethoven - The 10 Violin Sonatas (Menuhin, Kentner) - 2002 [FLAC]/Disc 02/03 - Sonata No. 7 in C minor, Op. 30 No. 2 - III. Scherzo (Allegro) and Trio.flac
/Volumes/Seagate Backup/Downloads/What.cd/To Upload/Beethoven - The 10 Violin Sonatas (Menuhin, Kentner) - 2002 [V0]/Disc 02/03 - Sonata No. 7 in C minor, Op. 30 No. 2 - III. Scherzo (Allegro) and Trio.mp3
/Volumes/Seagate Backup/Downloads/What.cd/To Upload/Beethoven - The 10 Violin Sonatas (Menuhin, Kentner) - 2002 [320]/Disc 02/03 - Sonata No. 7 in C minor, Op. 30 No. 2 - III. Scherzo (Allegro) and Trio.mp3
Pre-gap length : 00:02:61
[br]
Track gain               : -0.34 dB
Peak                     : 0.669159
CRC32 hash (test run)    : 53B3733F
CRC32 hash               : 53B3733F
CRC32 hash (skip zero)   : A18972BF
AccurateRip v1 signature : E5A956CA
AccurateRip v2 signature : 941A287E
->Accurately ripped (v1+v2, confidence 2+2/4)
Statistics
Read error                           : 0
Jitter error (maybe fixed)           : 0
Retry sector count                   : 0
Damaged sector count                 : 0
[br]
Track 04
Filename : /Volumes/Seagate Backup/Downloads/What.cd/To Upload/Beethoven - The 10 Violin Sonatas (Menuhin, Kentner) - 2002 [FLAC]/Disc 02/04 - Sonata No. 7 in C minor, Op. 30 No. 2 - IV. Finale (Allegro - Presto).flac
/Volumes/Seagate Backup/Downloads/What.cd/To Upload/Beethoven - The 10 Violin Sonatas (Menuhin, Kentner) - 2002 [V0]/Disc 02/04 - Sonata No. 7 in C minor, Op. 30 No. 2 - IV. Finale (Allegro - Presto).mp3
/Volumes/Seagate Backup/Downloads/What.cd/To Upload/Beethoven - The 10 Violin Sonatas (Menuhin, Kentner) - 2002 [320]/Disc 02/04 - Sonata No. 7 in C minor, Op. 30 No. 2 - IV. Finale (Allegro - Presto).mp3
Pre-gap length : 00:01:08
[br]
Track gain               : -0.62 dB
Peak                     : 0.690491
CRC32 hash (test run)    : BD26A5AC
CRC32 hash               : BD26A5AC
CRC32 hash (skip zero)   : 82718AD2
AccurateRip v1 signature : 00C63D83
AccurateRip v2 signature : E6E6C989
->Accurately ripped (v1+v2, confidence 2+2/4)
Statistics
Read error                           : 0
Jitter error (maybe fixed)           : 0
Retry sector count                   : 0
Damaged sector count                 : 0
[br]
Track 05
Filename : /Volumes/Seagate Backup/Downloads/What.cd/To Upload/Beethoven - The 10 Violin Sonatas (Menuhin, Kentner) - 2002 [FLAC]/Disc 02/05 - Sonata No. 8 in G major, Op. 30 No. 3 - I. Allegro assai.flac
/Volumes/Seagate Backup/Downloads/What.cd/To Upload/Beethoven - The 10 Violin Sonatas (Menuhin, Kentner) - 2002 [V0]/Disc 02/05 - Sonata No. 8 in G major, Op. 30 No. 3 - I. Allegro assai.mp3
/Volumes/Seagate Backup/Downloads/What.cd/To Upload/Beethoven - The 10 Violin Sonatas (Menuhin, Kentner) - 2002 [320]/Disc 02/05 - Sonata No. 8 in G major, Op. 30 No. 3 - I. Allegro assai.mp3
Pre-gap length : 00:04:39
[br]
Track gain               : -0.41 dB
Peak                     : 0.630066
CRC32 hash (test run)    : C2A0F96E
CRC32 hash               : C2A0F96E
CRC32 hash (skip zero)   : B83B33B2
AccurateRip v1 signature : 081B519D
AccurateRip v2 signature : 1F71CBCD
->Accurately ripped (v2, confidence 2/2)
Statistics
Read error                           : 0
Jitter error (maybe fixed)           : 0
Retry sector count                   : 0
Damaged sector count                 : 0
[br]
Track 06
Filename : /Volumes/Seagate Backup/Downloads/What.cd/To Upload/Beethoven - The 10 Violin Sonatas (Menuhin, Kentner) - 2002 [FLAC]/Disc 02/06 - Sonata No. 8 in G major, Op. 30 No. 3 - II. Tempo di minuetto, ma molto moderato e grazioso.flac
/Volumes/Seagate Backup/Downloads/What.cd/To Upload/Beethoven - The 10 Violin Sonatas (Menuhin, Kentner) - 2002 [V0]/Disc 02/06 - Sonata No. 8 in G major, Op. 30 No. 3 - II. Tempo di minuetto, ma molto moderato e grazioso.mp3
/Volumes/Seagate Backup/Downloads/What.cd/To Upload/Beethoven - The 10 Violin Sonatas (Menuhin, Kentner) - 2002 [320]/Disc 02/06 - Sonata No. 8 in G major, Op. 30 No. 3 - II. Tempo di minuetto, ma molto moderato e grazioso.mp3
Pre-gap length : 00:02:32
[br]
Track gain               : 1.82 dB
Peak                     : 0.536255
CRC32 hash (test run)    : 73C03F95
CRC32 hash               : 73C03F95
CRC32 hash (skip zero)   : 12CA9744
AccurateRip v1 signature : 44B12F50
AccurateRip v2 signature : 2872829C
->Accurately ripped (v2, confidence 2/2)
Statistics
Read error                           : 0
Jitter error (maybe fixed)           : 0
Retry sector count                   : 0
Damaged sector count                 : 0
[br]
Track 07
Filename : /Volumes/Seagate Backup/Downloads/What.cd/To Upload/Beethoven - The 10 Violin Sonatas (Menuhin, Kentner) - 2002 [FLAC]/Disc 02/07 - Sonata No. 8 in G major, Op. 30 No. 3 - III. Allegro vivace.flac
/Volumes/Seagate Backup/Downloads/What.cd/To Upload/Beethoven - The 10 Violin Sonatas (Menuhin, Kentner) - 2002 [V0]/Disc 02/07 - Sonata No. 8 in G major, Op. 30 No. 3 - III. Allegro vivace.mp3
/Volumes/Seagate Backup/Downloads/What.cd/To Upload/Beethoven - The 10 Violin Sonatas (Menuhin, Kentner) - 2002 [320]/Disc 02/07 - Sonata No. 8 in G major, Op. 30 No. 3 - III. Allegro vivace.mp3
Pre-gap length : 00:02:24
[br]
Track gain               : -0.95 dB
Peak                     : 0.699860
CRC32 hash (test run)    : 544CF76E
CRC32 hash               : 544CF76E
CRC32 hash (skip zero)   : ADCC0127
AccurateRip v1 signature : EF4A9A5A
AccurateRip v2 signature : 10D1F1F8
->Accurately ripped (v1+v2, confidence 2+2/4)
Statistics
Read error                           : 0
Jitter error (maybe fixed)           : 0
Retry sector count                   : 0
Damaged sector count                 : 0
[br]
Track 08
Filename : /Volumes/Seagate Backup/Downloads/What.cd/To Upload/Beethoven - The 10 Violin Sonatas (Menuhin, Kentner) - 2002 [FLAC]/Disc 02/08 - Sonata No. 10 in G major, Op. 96 - I. Allegro moderato.flac
/Volumes/Seagate Backup/Downloads/What.cd/To Upload/Beethoven - The 10 Violin Sonatas (Menuhin, Kentner) - 2002 [V0]/Disc 02/08 - Sonata No. 10 in G major, Op. 96 - I. Allegro moderato.mp3
/Volumes/Seagate Backup/Downloads/What.cd/To Upload/Beethoven - The 10 Violin Sonatas (Menuhin, Kentner) - 2002 [320]/Disc 02/08 - Sonata No. 10 in G major, Op. 96 - I. Allegro moderato.mp3
Pre-gap length : 00:04:21
[br]
Track gain               : 3.07 dB
Peak                     : 0.503052
CRC32 hash (test run)    : 712991A4
CRC32 hash               : 712991A4
CRC32 hash (skip zero)   : 5BDACC7B
AccurateRip v1 signature : EFFBEB24
AccurateRip v2 signature : 49B481DD
->Accurately ripped (v2, confidence 2/2)
Statistics
Read error                           : 0
Jitter error (maybe fixed)           : 0
Retry sector count                   : 0
Damaged sector count                 : 0
[br]
Track 09
Filename : /Volumes/Seagate Backup/Downloads/What.cd/To Upload/Beethoven - The 10 Violin Sonatas (Menuhin, Kentner) - 2002 [FLAC]/Disc 02/09 - Sonata No. 10 in G major, Op. 96 - II. Adagio espressivo.flac
/Volumes/Seagate Backup/Downloads/What.cd/To Upload/Beethoven - The 10 Violin Sonatas (Menuhin, Kentner) - 2002 [V0]/Disc 02/09 - Sonata No. 10 in G major, Op. 96 - II. Adagio espressivo.mp3
/Volumes/Seagate Backup/Downloads/What.cd/To Upload/Beethoven - The 10 Violin Sonatas (Menuhin, Kentner) - 2002 [320]/Disc 02/09 - Sonata No. 10 in G major, Op. 96 - II. Adagio espressivo.mp3
Pre-gap length : 00:00:74
[br]
Track gain               : 10.29 dB
Peak                     : 0.257599
CRC32 hash (test run)    : 19871DE2
CRC32 hash               : 19871DE2
CRC32 hash (skip zero)   : 57349C8E
AccurateRip v1 signature : F89CDC87
AccurateRip v2 signature : FEC1BBFE
->Accurately ripped (v1+v2, confidence 2+2/4)
Statistics
Read error                           : 0
Jitter error (maybe fixed)           : 0
Retry sector count                   : 0
Damaged sector count                 : 0
[br]
Track 10
Filename : /Volumes/Seagate Backup/Downloads/What.cd/To Upload/Beethoven - The 10 Violin Sonatas (Menuhin, Kentner) - 2002 [FLAC]/Disc 02/10 - Sonata No. 10 in G major, Op. 96 - III. Scherzo (Allegro) and Trio.flac
/Volumes/Seagate Backup/Downloads/What.cd/To Upload/Beethoven - The 10 Violin Sonatas (Menuhin, Kentner) - 2002 [V0]/Disc 02/10 - Sonata No. 10 in G major, Op. 96 - III. Scherzo (Allegro) and Trio.mp3
/Volumes/Seagate Backup/Downloads/What.cd/To Upload/Beethoven - The 10 Violin Sonatas (Menuhin, Kentner) - 2002 [320]/Disc 02/10 - Sonata No. 10 in G major, Op. 96 - III. Scherzo (Allegro) and Trio.mp3
Pre-gap length : 00:00:40
[br]
Track gain               : 6.00 dB
Peak                     : 0.299561
CRC32 hash (test run)    : 3F34D1C0
CRC32 hash               : 3F34D1C0
CRC32 hash (skip zero)   : 2EE8A632
AccurateRip v1 signature : 6D0D6060
AccurateRip v2 signature : 2E78F4C6
->Accurately ripped (v1+v2, confidence 2+2/4)
Statistics
Read error                           : 0
Jitter error (maybe fixed)           : 0
Retry sector count                   : 0
Damaged sector count                 : 0
[br]
Track 11
Filename : /Volumes/Seagate Backup/Downloads/What.cd/To Upload/Beethoven - The 10 Violin Sonatas (Menuhin, Kentner) - 2002 [FLAC]/Disc 02/11 - Sonata No. 10 in G major, Op. 96 - IV. Poco allegretto - Adagio espressivo - Poco allegretto.flac
/Volumes/Seagate Backup/Downloads/What.cd/To Upload/Beethoven - The 10 Violin Sonatas (Menuhin, Kentner) - 2002 [V0]/Disc 02/11 - Sonata No. 10 in G major, Op. 96 - IV. Poco allegretto - Adagio espressivo - Poco allegretto.mp3
/Volumes/Seagate Backup/Downloads/What.cd/To Upload/Beethoven - The 10 Violin Sonatas (Menuhin, Kentner) - 2002 [320]/Disc 02/11 - Sonata No. 10 in G major, Op. 96 - IV. Poco allegretto - Adagio espressivo - Poco allegretto.mp3
Pre-gap length : 00:02:47
[br]
Track gain               : 1.89 dB
Peak                     : 0.607422
CRC32 hash (test run)    : 1F54C649
CRC32 hash               : 1F54C649
CRC32 hash (skip zero)   : 744FBA2B
AccurateRip v1 signature : A10E8C1E
AccurateRip v2 signature : 06FD3010
->Accurately ripped (v2, confidence 2/2)
Statistics
Read error                           : 0
Jitter error (maybe fixed)           : 0
Retry sector count                   : 0
Damaged sector count                 : 0
[br]
No errors occurred
[br]
End of status report
[br]
-----BEGIN XLD SIGNATURE-----
IIN9711yzPKGyHOeOeQnt8dXSRIjhUjiykX2W0pn.D6XeHK9Cr0HBzsYcfy2pco2QoeqJSj2UQ4Wois6GsESMsvGx5V36bDp5VcponK
-----END XLD SIGNATURE-----
-

CUE

TITLE "Beethoven: The 10 Violin Sonatas"
PERFORMER "Yehudi Menuhin, Louis Kentner"
CATALOG 0724357480628
REM GENRE "Classical"
REM DATE "2002"
REM DISCNUMBER 2
REM TOTALDISCS 3
REM DISCID AB11C60B
REM REPLAYGAIN_ALBUM_GAIN 0.92 dB
REM REPLAYGAIN_ALBUM_PEAK 0.708038
FILE "01 - Sonata No. 7 in C minor, Op. 30 No. 2 - I. Allegro con brio.flac" WAVE
TRACK 01 AUDIO
TITLE "Sonata No. 7 in C minor, Op. 30 No. 2 - I. Allegro con brio"
SONGWRITER "Ludwig van Beethoven"
ISRC GBAYC0101956
REM REPLAYGAIN_TRACK_GAIN -1.28 dB
REM REPLAYGAIN_TRACK_PEAK 0.671143
INDEX 01 00:00:00
TRACK 02 AUDIO
TITLE "Sonata No. 7 in C minor, Op. 30 No. 2 - II. Adagio cantabile"
SONGWRITER "Ludwig van Beethoven"
ISRC GBAYC0101957
REM REPLAYGAIN_TRACK_GAIN 4.94 dB
REM REPLAYGAIN_TRACK_PEAK 0.708038
INDEX 00 08:04:29
FILE "02 - Sonata No. 7 in C minor, Op. 30 No. 2 - II. Adagio cantabile.flac" WAVE
INDEX 01 00:00:00
TRACK 03 AUDIO
TITLE "Sonata No. 7 in C minor, Op. 30 No. 2 - III. Scherzo (Allegro) and Trio"
SONGWRITER "Ludwig van Beethoven"
ISRC GBAYC0101958
REM REPLAYGAIN_TRACK_GAIN -0.34 dB
REM REPLAYGAIN_TRACK_PEAK 0.669159
INDEX 00 10:45:56
FILE "03 - Sonata No. 7 in C minor, Op. 30 No. 2 - III. Scherzo (Allegro) and Trio.flac" WAVE
INDEX 01 00:00:00
TRACK 04 AUDIO
TITLE "Sonata No. 7 in C minor, Op. 30 No. 2 - IV. Finale (Allegro - Presto)"
SONGWRITER "Ludwig van Beethoven"
ISRC GBAYC0101959
REM REPLAYGAIN_TRACK_GAIN -0.62 dB
REM REPLAYGAIN_TRACK_PEAK 0.690491
INDEX 00 03:33:72
FILE "04 - Sonata No. 7 in C minor, Op. 30 No. 2 - IV. Finale (Allegro - Presto).flac" WAVE
INDEX 01 00:00:00
TRACK 05 AUDIO
TITLE "Sonata No. 8 in G major, Op. 30 No. 3 - I. Allegro assai"
SONGWRITER "Ludwig van Beethoven"
ISRC GBAYC0101961
REM REPLAYGAIN_TRACK_GAIN -0.41 dB
REM REPLAYGAIN_TRACK_PEAK 0.630066
INDEX 00 05:09:21
FILE "05 - Sonata No. 8 in G major, Op. 30 No. 3 - I. Allegro assai.flac" WAVE
INDEX 01 00:00:00
TRACK 06 AUDIO
TITLE "Sonata No. 8 in G major, Op. 30 No. 3 - II. Tempo di minuetto, ma molto moderato e grazioso"
SONGWRITER "Ludwig van Beethoven"
ISRC GBAYC0101962
REM REPLAYGAIN_TRACK_GAIN 1.82 dB
REM REPLAYGAIN_TRACK_PEAK 0.536255
INDEX 00 06:39:35
FILE "06 - Sonata No. 8 in G major, Op. 30 No. 3 - II. Tempo di minuetto, ma molto moderato e grazioso.flac" WAVE
INDEX 01 00:00:00
TRACK 07 AUDIO
TITLE "Sonata No. 8 in G major, Op. 30 No. 3 - III. Allegro vivace"
SONGWRITER "Ludwig van Beethoven"
ISRC GBAYC0101963
REM REPLAYGAIN_TRACK_GAIN -0.95 dB
REM REPLAYGAIN_TRACK_PEAK 0.699860
INDEX 00 07:33:37
FILE "07 - Sonata No. 8 in G major, Op. 30 No. 3 - III. Allegro vivace.flac" WAVE
INDEX 01 00:00:00
TRACK 08 AUDIO
TITLE "Sonata No. 10 in G major, Op. 96 - I. Allegro moderato"
SONGWRITER "Ludwig van Beethoven"
ISRC GBAYC0101965
REM REPLAYGAIN_TRACK_GAIN 3.07 dB
REM REPLAYGAIN_TRACK_PEAK 0.503052
INDEX 00 03:31:46
FILE "08 - Sonata No. 10 in G major, Op. 96 - I. Allegro moderato.flac" WAVE
INDEX 01 00:00:00
TRACK 09 AUDIO
TITLE "Sonata No. 10 in G major, Op. 96 - II. Adagio espressivo"
SONGWRITER "Ludwig van Beethoven"
ISRC GBAYC0101966
REM REPLAYGAIN_TRACK_GAIN 10.29 dB
REM REPLAYGAIN_TRACK_PEAK 0.257599
INDEX 00 10:56:46
FILE "09 - Sonata No. 10 in G major, Op. 96 - II. Adagio espressivo.flac" WAVE
INDEX 01 00:00:00
TRACK 10 AUDIO
TITLE "Sonata No. 10 in G major, Op. 96 - III. Scherzo (Allegro) and Trio"
SONGWRITER "Ludwig van Beethoven"
ISRC GBAYC0101967
REM REPLAYGAIN_TRACK_GAIN 6.00 dB
REM REPLAYGAIN_TRACK_PEAK 0.299561
INDEX 00 07:19:45
FILE "10 - Sonata No. 10 in G major, Op. 96 - III. Scherzo (Allegro) and Trio.flac" WAVE
INDEX 01 00:00:00
TRACK 11 AUDIO
TITLE "Sonata No. 10 in G major, Op. 96 - IV. Poco allegretto - Adagio espressivo - Poco allegretto"
SONGWRITER "Ludwig van Beethoven"
ISRC GBAYC0101968
REM REPLAYGAIN_TRACK_GAIN 1.89 dB
REM REPLAYGAIN_TRACK_PEAK 0.607422
INDEX 00 01:45:03
FILE "11 - Sonata No. 10 in G major, Op. 96 - IV. Poco allegretto - Adagio espressivo - Poco allegretto.flac" WAVE
INDEX 01 00:00:00
-CD3 – 01h14'26"
(01-03) Violin Sonata № 4 a-moll Op 23 [17'49"]
(04-07) Violin Sonata № 5 F-Dur Op 24 «Spring» [21'40"]
(08-10) Violin Sonata № 9 A-Dur Op 47 «Kreutzer» [34'56"]-

XLD log

X Lossless Decoder version 20141129a (148.2)
[br]
XLD extraction logfile from 2015-11-24 16:17:10 -0500
[br]
Yehudi Menuhin, Louis Kentner / Beethoven: The 10 Violin Sonatas
[br]
Used drive : MATSHITA DVD-R   UJ-8A8 (revision HA13)
Media type : Pressed CD
[br]
Ripper mode             : XLD Secure Ripper
Disable audio cache     : OK for the drive with a cache less than 1375KiB
Make use of C2 pointers : NO
Read offset correction  : 102
Max retry count         : 20
Gap status              : Analyzed, Appended (except HTOA)
[br]
TOC of the extracted CD
Track |   Start  |  Length  | Start sector | End sector
---------------------------------------------------------
1  | 00:00:00 | 05:23:23 |         0    |    24247
2  | 05:23:23 | 06:37:15 |     24248    |    54037
3  | 12:00:38 | 05:48:65 |     54038    |    80202
4  | 17:49:28 | 07:20:32 |     80203    |   113234
5  | 25:09:60 | 06:40:19 |    113235    |   143253
6  | 31:50:04 | 01:11:11 |    143254    |   148589
7  | 33:01:15 | 06:28:32 |    148590    |   177721
8  | 39:29:47 | 11:59:55 |    177722    |   231701
9  | 51:29:27 | 15:44:61 |    231702    |   302562
10  | 67:14:13 | 07:11:39 |    302563    |   334926
[br]
AccurateRip Summary (DiscID: 001892f2-00c9a1dd-7111710a)
Track 01 : OK (v2, confidence 2/2)
Track 02 : OK (v2, confidence 2/2)
Track 03 : OK (v1+v2, confidence 4/4)
Track 04 : OK (v1+v2, confidence 4/4)
Track 05 : OK (v1+v2, confidence 4/4)
Track 06 : OK (v1+v2, confidence 4/4)
Track 07 : OK (v1+v2, confidence 4/4)
Track 08 : OK (v1+v2, confidence 4/4)
Track 09 : OK (v1+v2, confidence 4/4)
Track 10 : OK (v2, confidence 2/2)
->All tracks accurately ripped.
[br]
All Tracks
Album gain               : 2.21 dB
Peak                     : 0.707916
Statistics
Read error                           : 0
Jitter error (maybe fixed)           : 0
Retry sector count                   : 0
Damaged sector count                 : 0
[br]
Track 01
Filename : /Volumes/Seagate Backup/Downloads/What.cd/To Upload/Beethoven - The 10 Violin Sonatas (Menuhin, Kentner) - 2002 [FLAC]/Disc 03/01 - Sonata No. 4 in A minor, Op. 23 - I. Presto.flac
/Volumes/Seagate Backup/Downloads/What.cd/To Upload/Beethoven - The 10 Violin Sonatas (Menuhin, Kentner) - 2002 [V0]/Disc 03/01 - Sonata No. 4 in A minor, Op. 23 - I. Presto.mp3
/Volumes/Seagate Backup/Downloads/What.cd/To Upload/Beethoven - The 10 Violin Sonatas (Menuhin, Kentner) - 2002 [320]/Disc 03/01 - Sonata No. 4 in A minor, Op. 23 - I. Presto.mp3
Pre-gap length : 00:02:00
[br]
Track gain               : -1.15 dB
Peak                     : 0.699707
CRC32 hash (test run)    : 5AA322F9
CRC32 hash               : 5AA322F9
CRC32 hash (skip zero)   : F349F0CD
AccurateRip v1 signature : F1E80532
AccurateRip v2 signature : DA6746ED
->Accurately ripped (v2, confidence 2/2)
Statistics
Read error                           : 0
Jitter error (maybe fixed)           : 0
Retry sector count                   : 0
Damaged sector count                 : 0
[br]
Track 02
Filename : /Volumes/Seagate Backup/Downloads/What.cd/To Upload/Beethoven - The 10 Violin Sonatas (Menuhin, Kentner) - 2002 [FLAC]/Disc 03/02 - Sonata No. 4 in A minor, Op. 23 - II. Andante scherzoso, piГ№ allegretto.flac
/Volumes/Seagate Backup/Downloads/What.cd/To Upload/Beethoven - The 10 Violin Sonatas (Menuhin, Kentner) - 2002 [V0]/Disc 03/02 - Sonata No. 4 in A minor, Op. 23 - II. Andante scherzoso, piГ№ allegretto.mp3
/Volumes/Seagate Backup/Downloads/What.cd/To Upload/Beethoven - The 10 Violin Sonatas (Menuhin, Kentner) - 2002 [320]/Disc 03/02 - Sonata No. 4 in A minor, Op. 23 - II. Andante scherzoso, piГ№ allegretto.mp3
Pre-gap length : 00:00:08
[br]
Track gain               : 3.34 dB
Peak                     : 0.521118
CRC32 hash (test run)    : 579D7A35
CRC32 hash               : 579D7A35
CRC32 hash (skip zero)   : E38F37A2
AccurateRip v1 signature : BF2CBCA2
AccurateRip v2 signature : A1E6DEAC
->Accurately ripped (v2, confidence 2/2)
Statistics
Read error                           : 0
Jitter error (maybe fixed)           : 0
Retry sector count                   : 0
Damaged sector count                 : 0
[br]
Track 03
Filename : /Volumes/Seagate Backup/Downloads/What.cd/To Upload/Beethoven - The 10 Violin Sonatas (Menuhin, Kentner) - 2002 [FLAC]/Disc 03/03 - Sonata No. 4 in A minor, Op. 23 - III. Allegro molto.flac
/Volumes/Seagate Backup/Downloads/What.cd/To Upload/Beethoven - The 10 Violin Sonatas (Menuhin, Kentner) - 2002 [V0]/Disc 03/03 - Sonata No. 4 in A minor, Op. 23 - III. Allegro molto.mp3
/Volumes/Seagate Backup/Downloads/What.cd/To Upload/Beethoven - The 10 Violin Sonatas (Menuhin, Kentner) - 2002 [320]/Disc 03/03 - Sonata No. 4 in A minor, Op. 23 - III. Allegro molto.mp3
Pre-gap length : 00:00:08
[br]
Track gain               : -0.71 dB
Peak                     : 0.707916
CRC32 hash (test run)    : 083963FF
CRC32 hash               : 083963FF
CRC32 hash (skip zero)   : D1CAEE3A
AccurateRip v1 signature : BCACFF41
AccurateRip v2 signature : 999C77E8
->Accurately ripped (v1+v2, confidence 2+2/4)
Statistics
Read error                           : 0
Jitter error (maybe fixed)           : 0
Retry sector count                   : 0
Damaged sector count                 : 0
[br]
Track 04
Filename : /Volumes/Seagate Backup/Downloads/What.cd/To Upload/Beethoven - The 10 Violin Sonatas (Menuhin, Kentner) - 2002 [FLAC]/Disc 03/04 - Sonata No. 5 in F major, Op. 24 “Spring“ - I. Allegro.flac
/Volumes/Seagate Backup/Downloads/What.cd/To Upload/Beethoven - The 10 Violin Sonatas (Menuhin, Kentner) - 2002 [V0]/Disc 03/04 - Sonata No. 5 in F major, Op. 24 “Spring“ - I. Allegro.mp3
/Volumes/Seagate Backup/Downloads/What.cd/To Upload/Beethoven - The 10 Violin Sonatas (Menuhin, Kentner) - 2002 [320]/Disc 03/04 - Sonata No. 5 in F major, Op. 24 “Spring“ - I. Allegro.mp3
Pre-gap length : 00:03:70
[br]
Track gain               : 2.62 dB
Peak                     : 0.524109
CRC32 hash (test run)    : 4CC7E4C1
CRC32 hash               : 4CC7E4C1
CRC32 hash (skip zero)   : 3121A5F8
AccurateRip v1 signature : 63FCD761
AccurateRip v2 signature : 46134D9A
->Accurately ripped (v1+v2, confidence 2+2/4)
Statistics
Read error                           : 0
Jitter error (maybe fixed)           : 0
Retry sector count                   : 0
Damaged sector count                 : 0
[br]
Track 05
Filename : /Volumes/Seagate Backup/Downloads/What.cd/To Upload/Beethoven - The 10 Violin Sonatas (Menuhin, Kentner) - 2002 [FLAC]/Disc 03/05 - Sonata No. 5 in F major, Op. 24 “Spring“ - II. Adagio molto espressivo.flac
/Volumes/Seagate Backup/Downloads/What.cd/To Upload/Beethoven - The 10 Violin Sonatas (Menuhin, Kentner) - 2002 [V0]/Disc 03/05 - Sonata No. 5 in F major, Op. 24 “Spring“ - II. Adagio molto espressivo.mp3
/Volumes/Seagate Backup/Downloads/What.cd/To Upload/Beethoven - The 10 Violin Sonatas (Menuhin, Kentner) - 2002 [320]/Disc 03/05 - Sonata No. 5 in F major, Op. 24 “Spring“ - II. Adagio molto espressivo.mp3
Pre-gap length : 00:01:28
[br]
Track gain               : 8.99 dB
Peak                     : 0.349121
CRC32 hash (test run)    : 68F279EB
CRC32 hash               : 68F279EB
CRC32 hash (skip zero)   : 627FB9CA
AccurateRip v1 signature : 2E7303F3
AccurateRip v2 signature : 95262909
->Accurately ripped (v1+v2, confidence 2+2/4)
Statistics
Read error                           : 0
Jitter error (maybe fixed)           : 0
Retry sector count                   : 0
Damaged sector count                 : 0
[br]
Track 06
Filename : /Volumes/Seagate Backup/Downloads/What.cd/To Upload/Beethoven - The 10 Violin Sonatas (Menuhin, Kentner) - 2002 [FLAC]/Disc 03/06 - Sonata No. 5 in F major, Op. 24 “Spring“ - III. Scherzo (Allegro molto) and Trio.flac
/Volumes/Seagate Backup/Downloads/What.cd/To Upload/Beethoven - The 10 Violin Sonatas (Menuhin, Kentner) - 2002 [V0]/Disc 03/06 - Sonata No. 5 in F major, Op. 24 “Spring“ - III. Scherzo (Allegro molto) and Trio.mp3
/Volumes/Seagate Backup/Downloads/What.cd/To Upload/Beethoven - The 10 Violin Sonatas (Menuhin, Kentner) - 2002 [320]/Disc 03/06 - Sonata No. 5 in F major, Op. 24 “Spring“ - III. Scherzo (Allegro molto) and Trio.mp3
Pre-gap length : 00:01:07
[br]
Track gain               : 2.63 dB
Peak                     : 0.646088
CRC32 hash (test run)    : B4DB9D48
CRC32 hash               : B4DB9D48
CRC32 hash (skip zero)   : 8AFFBA18
AccurateRip v1 signature : 4874323E
AccurateRip v2 signature : 3AE862C7
->Accurately ripped (v1+v2, confidence 2+2/4)
Statistics
Read error                           : 0
Jitter error (maybe fixed)           : 0
Retry sector count                   : 0
Damaged sector count                 : 0
[br]
Track 07
Filename : /Volumes/Seagate Backup/Downloads/What.cd/To Upload/Beethoven - The 10 Violin Sonatas (Menuhin, Kentner) - 2002 [FLAC]/Disc 03/07 - Sonata No. 5 in F major, Op. 24 “Spring“ - IV. Rondo (Allegro ma non troppo).flac
/Volumes/Seagate Backup/Downloads/What.cd/To Upload/Beethoven - The 10 Violin Sonatas (Menuhin, Kentner) - 2002 [V0]/Disc 03/07 - Sonata No. 5 in F major, Op. 24 “Spring“ - IV. Rondo (Allegro ma non troppo).mp3
/Volumes/Seagate Backup/Downloads/What.cd/To Upload/Beethoven - The 10 Violin Sonatas (Menuhin, Kentner) - 2002 [320]/Disc 03/07 - Sonata No. 5 in F major, Op. 24 “Spring“ - IV. Rondo (Allegro ma non troppo).mp3
Pre-gap length : 00:00:08
[br]
Track gain               : 1.60 dB
Peak                     : 0.657104
CRC32 hash (test run)    : 5B6E1C79
CRC32 hash               : 5B6E1C79
CRC32 hash (skip zero)   : 620959C7
AccurateRip v1 signature : EC35489E
AccurateRip v2 signature : 3B96C33A
->Accurately ripped (v1+v2, confidence 2+2/4)
Statistics
Read error                           : 0
Jitter error (maybe fixed)           : 0
Retry sector count                   : 0
Damaged sector count                 : 0
[br]
Track 08
Filename : /Volumes/Seagate Backup/Downloads/What.cd/To Upload/Beethoven - The 10 Violin Sonatas (Menuhin, Kentner) - 2002 [FLAC]/Disc 03/08 - Sonata No. 9 in A major, Op. 47 “Kreutzer“ - I. Adagio sostenuto - Presto.flac
/Volumes/Seagate Backup/Downloads/What.cd/To Upload/Beethoven - The 10 Violin Sonatas (Menuhin, Kentner) - 2002 [V0]/Disc 03/08 - Sonata No. 9 in A major, Op. 47 “Kreutzer“ - I. Adagio sostenuto - Presto.mp3
/Volumes/Seagate Backup/Downloads/What.cd/To Upload/Beethoven - The 10 Violin Sonatas (Menuhin, Kentner) - 2002 [320]/Disc 03/08 - Sonata No. 9 in A major, Op. 47 “Kreutzer“ - I. Adagio sostenuto - Presto.mp3
Pre-gap length : 00:03:17
[br]
Track gain               : 2.02 dB
Peak                     : 0.539795
CRC32 hash (test run)    : EEC181DD
CRC32 hash               : EEC181DD
CRC32 hash (skip zero)   : 287EB785
AccurateRip v1 signature : 159AA0E7
AccurateRip v2 signature : 45C6B49B
->Accurately ripped (v1+v2, confidence 2+2/4)
Statistics
Read error                           : 0
Jitter error (maybe fixed)           : 0
Retry sector count                   : 0
Damaged sector count                 : 0
[br]
Track 09
Filename : /Volumes/Seagate Backup/Downloads/What.cd/To Upload/Beethoven - The 10 Violin Sonatas (Menuhin, Kentner) - 2002 [FLAC]/Disc 03/09 - Sonata No. 9 in A major, Op. 47 “Kreutzer“ - II. Andante con variazioni I-IV.flac
/Volumes/Seagate Backup/Downloads/What.cd/To Upload/Beethoven - The 10 Violin Sonatas (Menuhin, Kentner) - 2002 [V0]/Disc 03/09 - Sonata No. 9 in A major, Op. 47 “Kreutzer“ - II. Andante con variazioni I-IV.mp3
/Volumes/Seagate Backup/Downloads/What.cd/To Upload/Beethoven - The 10 Violin Sonatas (Menuhin, Kentner) - 2002 [320]/Disc 03/09 - Sonata No. 9 in A major, Op. 47 “Kreutzer“ - II. Andante con variazioni I-IV.mp3
Pre-gap length : 00:02:31
[br]
Track gain               : 7.81 dB
Peak                     : 0.347198
CRC32 hash (test run)    : 05995844
CRC32 hash               : 05995844
CRC32 hash (skip zero)   : 95D868C3
AccurateRip v1 signature : 36F4F508
AccurateRip v2 signature : F532F9F2
->Accurately ripped (v1+v2, confidence 2+2/4)
Statistics
Read error                           : 0
Jitter error (maybe fixed)           : 0
Retry sector count                   : 0
Damaged sector count                 : 0
[br]
Track 10
Filename : /Volumes/Seagate Backup/Downloads/What.cd/To Upload/Beethoven - The 10 Violin Sonatas (Menuhin, Kentner) - 2002 [FLAC]/Disc 03/10 - Sonata No. 9 in A major, Op. 47 “Kreutzer“ - III. Finale (Presto).flac
/Volumes/Seagate Backup/Downloads/What.cd/To Upload/Beethoven - The 10 Violin Sonatas (Menuhin, Kentner) - 2002 [V0]/Disc 03/10 - Sonata No. 9 in A major, Op. 47 “Kreutzer“ - III. Finale (Presto).mp3
/Volumes/Seagate Backup/Downloads/What.cd/To Upload/Beethoven - The 10 Violin Sonatas (Menuhin, Kentner) - 2002 [320]/Disc 03/10 - Sonata No. 9 in A major, Op. 47 “Kreutzer“ - III. Finale (Presto).mp3
Pre-gap length : 00:01:64
[br]
Track gain               : 3.27 dB
Peak                     : 0.502777
CRC32 hash (test run)    : 9230E253
CRC32 hash               : 9230E253
CRC32 hash (skip zero)   : 3845382C
AccurateRip v1 signature : 37D01DFE
AccurateRip v2 signature : 47599CB8
->Accurately ripped (v2, confidence 2/2)
Statistics
Read error                           : 0
Jitter error (maybe fixed)           : 0
Retry sector count                   : 0
Damaged sector count                 : 0
[br]
No errors occurred
[br]
End of status report
[br]
-----BEGIN XLD SIGNATURE-----
vXV4DajFYSIgYAoTHAKXa3wLufYT.RvQxyVxhk_7nF6BM.I4JEmhyE_ixttj0MZisH6RMZXB1ObwyoTdM51MgAOmYPn0fDrVSXVyc0S
-----END XLD SIGNATURE-----
-

CUE

TITLE "Beethoven: The 10 Violin Sonatas"
PERFORMER "Yehudi Menuhin, Louis Kentner"
CATALOG 0724357480727
REM GENRE "Classical"
REM DATE "2002"
REM DISCNUMBER 3
REM TOTALDISCS 3
REM DISCID 7111710A
REM REPLAYGAIN_ALBUM_GAIN 2.21 dB
REM REPLAYGAIN_ALBUM_PEAK 0.707916
FILE "01 - Sonata No. 4 in A minor, Op. 23 - I. Presto.flac" WAVE
TRACK 01 AUDIO
TITLE "Sonata No. 4 in A minor, Op. 23 - I. Presto"
SONGWRITER "Ludwig van Beethoven"
ISRC GBAYC0101970
REM REPLAYGAIN_TRACK_GAIN -1.15 dB
REM REPLAYGAIN_TRACK_PEAK 0.699707
INDEX 01 00:00:00
TRACK 02 AUDIO
TITLE "Sonata No. 4 in A minor, Op. 23 - II. Andante scherzoso, piГ№ allegretto"
SONGWRITER "Ludwig van Beethoven"
ISRC GBAYC0101971
REM REPLAYGAIN_TRACK_GAIN 3.34 dB
REM REPLAYGAIN_TRACK_PEAK 0.521118
INDEX 00 05:23:15
FILE "02 - Sonata No. 4 in A minor, Op. 23 - II. Andante scherzoso, piГ№ allegretto.flac" WAVE
INDEX 01 00:00:00
TRACK 03 AUDIO
TITLE "Sonata No. 4 in A minor, Op. 23 - III. Allegro molto"
SONGWRITER "Ludwig van Beethoven"
ISRC GBAYC0101972
REM REPLAYGAIN_TRACK_GAIN -0.71 dB
REM REPLAYGAIN_TRACK_PEAK 0.707916
INDEX 00 06:37:07
FILE "03 - Sonata No. 4 in A minor, Op. 23 - III. Allegro molto.flac" WAVE
INDEX 01 00:00:00
TRACK 04 AUDIO
TITLE "Sonata No. 5 in F major, Op. 24 "Spring" - I. Allegro"
SONGWRITER "Ludwig van Beethoven"
ISRC GBAYC0101975
REM REPLAYGAIN_TRACK_GAIN 2.62 dB
REM REPLAYGAIN_TRACK_PEAK 0.524109
INDEX 00 05:44:70
FILE "04 - Sonata No. 5 in F major, Op. 24 “Spring“ - I. Allegro.flac" WAVE
INDEX 01 00:00:00
TRACK 05 AUDIO
TITLE "Sonata No. 5 in F major, Op. 24 "Spring" - II. Adagio molto espressivo"
SONGWRITER "Ludwig van Beethoven"
ISRC GBAYC0101976
REM REPLAYGAIN_TRACK_GAIN 8.99 dB
REM REPLAYGAIN_TRACK_PEAK 0.349121
INDEX 00 07:19:04
FILE "05 - Sonata No. 5 in F major, Op. 24 “Spring“ - II. Adagio molto espressivo.flac" WAVE
INDEX 01 00:00:00
TRACK 06 AUDIO
TITLE "Sonata No. 5 in F major, Op. 24 "Spring" - III. Scherzo (Allegro molto) and Trio"
SONGWRITER "Ludwig van Beethoven"
ISRC GBAYC0101977
REM REPLAYGAIN_TRACK_GAIN 2.63 dB
REM REPLAYGAIN_TRACK_PEAK 0.646088
INDEX 00 06:39:12
FILE "06 - Sonata No. 5 in F major, Op. 24 “Spring“ - III. Scherzo (Allegro molto) and Trio.flac" WAVE
INDEX 01 00:00:00
TRACK 07 AUDIO
TITLE "Sonata No. 5 in F major, Op. 24 "Spring" - IV. Rondo (Allegro ma non troppo)"
SONGWRITER "Ludwig van Beethoven"
ISRC GBAYC0101977
REM REPLAYGAIN_TRACK_GAIN 1.60 dB
REM REPLAYGAIN_TRACK_PEAK 0.657104
INDEX 00 01:11:03
FILE "07 - Sonata No. 5 in F major, Op. 24 “Spring“ - IV. Rondo (Allegro ma non troppo).flac" WAVE
INDEX 01 00:00:00
TRACK 08 AUDIO
TITLE "Sonata No. 9 in A major, Op. 47 "Kreutzer" - I. Adagio sostenuto - Presto"
SONGWRITER "Ludwig van Beethoven"
ISRC GBAYC0101978
REM REPLAYGAIN_TRACK_GAIN 2.02 dB
REM REPLAYGAIN_TRACK_PEAK 0.539795
INDEX 00 06:25:15
FILE "08 - Sonata No. 9 in A major, Op. 47 “Kreutzer“ - I. Adagio sostenuto - Presto.flac" WAVE
INDEX 01 00:00:00
TRACK 09 AUDIO
TITLE "Sonata No. 9 in A major, Op. 47 "Kreutzer" - II. Andante con variazioni I-IV"
SONGWRITER "Ludwig van Beethoven"
ISRC GBAYC0101980
REM REPLAYGAIN_TRACK_GAIN 7.81 dB
REM REPLAYGAIN_TRACK_PEAK 0.347198
INDEX 00 11:57:24
FILE "09 - Sonata No. 9 in A major, Op. 47 “Kreutzer“ - II. Andante con variazioni I-IV.flac" WAVE
INDEX 01 00:00:00
TRACK 10 AUDIO
TITLE "Sonata No. 9 in A major, Op. 47 "Kreutzer" - III. Finale (Presto)"
SONGWRITER "Ludwig van Beethoven"
ISRC GBAYC0101981
REM REPLAYGAIN_TRACK_GAIN 3.27 dB
REM REPLAYGAIN_TRACK_PEAK 0.502777
INDEX 00 15:42:72
FILE "10 - Sonata No. 9 in A major, Op. 47 “Kreutzer“ - III. Finale (Presto).flac" WAVE
INDEX 01 00:00:00
-
-



Показать сообщения:    

Текущее время: 03-Дек 01:20

Часовой пояс: UTC + 3


Вы не можете начинать темы
Вы не можете отвечать на сообщения
Вы не можете редактировать свои сообщения
Вы не можете удалять свои сообщения
Вы не можете голосовать в опросах
Вы не можете прикреплять файлы к сообщениям
Вы не можете скачивать файлы