(Orchestral) Т.Хренников и его ученики: В.Кикта • Т.Чудова • А.Чайковский • С.Голубков • Е.Щербаков (Мндоянц | Белышев | Булахов | Квартет им. Алябьева | Оркестр Мин.Обороны РФ) - 2015, FLAC (image+.cue) lossless


 

[Цитировать]

TIKHON KHRENNIKOV and his students
V.Kikta • T.Chudova • A.Tchaikovsky
S.Golubkov • E.Shcherbakov • T.Khrennikov Jr.
--- Жанр: Orchestral
Страна-производитель диска: Россия
Год издания диска: 2015
Издатель (лейбл): SMC
Дата записи: 2013
Аудиокодек: FLAC
Тип рипа: image+.cue
Битрейт аудио: lossless
Продолжительность: 79'50'' | 78'02''
Источник: собственный рип
Наличие сканов в содержимом раздачи: да
Треклист:

CD1

[01] Три сонета Шекспира: No.112 Andante espressivo
[02] No.66 Moderato
[03] No.81. Andantino
[04] Фортепианный концерт №2: I. Introduction. Moderato
[05] II. Sonata. Allegro con fuoco
[06] III. Rondo. Giocoso - Andantino
[07] Скрипичный концерт №1: I. Allegro con fuoco
[08] II. Andante espressivo
[09] III. Allegro agitato
[10] Фортепианный концерт №3: I. Moderato - Allegro
[11] II. Moderato
[12] III. Allegro molto
[13] Три поэмы для хора а-капелла: I.Перед дождём
[14] II. Несжатая полоса
[15] III. Внимая ужасам войны
[16] Гимн
А.Морозов - баритон [1-3] | А.Луковников - фортепиано [1-3] | Н.Мндоянц - фортепиано [4-6] | Ю.Игонина- срипка [7-9] | Т.Хренников-мл. - фортепиано [10-12]

Лог создания рипа

Exact Audio Copy V1.0 beta 4 from 7. December 2014
EAC extraction logfile from 16. September 2015, 23:53
Tikhon Khrennikov / T.Khrennikov and his students (CD1)
Used drive : PHILIPS PCRW804 Adapter: 1 ID: 1
Read mode : Secure
Utilize accurate stream : Yes
Defeat audio cache : Yes
Make use of C2 pointers : No
Read offset correction : -436
Overread into Lead-In and Lead-Out : No
Fill up missing offset samples with silence : Yes
Delete leading and trailing silent blocks : No
Null samples used in CRC calculations : Yes
Used interface : Native Win32 interface for Win NT & 2000
Used output format : User Defined Encoder
Selected bitrate : 1024 kBit/s
Quality : High
Add ID3 tag : No
Command line compressor : C:\Program Files (x86)\FLAC\flac.exe
Additional command line options : -T "COMMENT=rip by el coronel" -8 -V %source%
TOC of the extracted CD
Track | Start | Length | Start sector | End sector
---------------------------------------------------------
1 | 0:00.00 | 3:15.33 | 0 | 14657
2 | 3:15.33 | 2:26.54 | 14658 | 25661
3 | 5:42.12 | 3:10.63 | 25662 | 39974
4 | 8:53.00 | 3:58.38 | 39975 | 57862
5 | 12:51.38 | 5:29.44 | 57863 | 82581
6 | 18:21.07 | 7:12.68 | 82582 | 115049
7 | 25:34.00 | 9:58.49 | 115050 | 159948
8 | 35:32.49 | 8:15.40 | 159949 | 197113
9 | 43:48.14 | 6:04.61 | 197114 | 224474
10 | 49:53.00 | 9:08.24 | 224475 | 265598
11 | 59:01.24 | 5:21.03 | 265599 | 289676
12 | 64:22.27 | 5:44.48 | 289677 | 315524
13 | 70:07.00 | 2:22.48 | 315525 | 326222
14 | 72:29.48 | 2:53.65 | 326223 | 339262
15 | 75:23.38 | 2:35.37 | 339263 | 350924
16 | 77:59.00 | 1:51.00 | 350925 | 359249
Range status and errors
Selected range
Filename F:\Music\Khrennikov and his Students\CD1.wav
Peak level 96.6 %
Extraction speed 2.2 X
Range quality 100.0 %
Test CRC 097B6EB4
Copy CRC 097B6EB4
Copy OK
No errors occurred
AccurateRip summary
Track 1 not present in database
Track 2 not present in database
Track 3 not present in database
Track 4 not present in database
Track 5 not present in database
Track 6 not present in database
Track 7 not present in database
Track 8 not present in database
Track 9 not present in database
Track 10 not present in database
Track 11 not present in database
Track 12 not present in database
Track 13 not present in database
Track 14 not present in database
Track 15 not present in database
Track 16 not present in database
None of the tracks are present in the AccurateRip database
End of status report
---- CUETools DB Plugin V2.1.4
[CTDB TOCID: fDXGjnEu2ddjPGXESMlV_sNpX90-] disk not present in database
Submit result: fDXGjnEu2ddjPGXESMlV_sNpX90- has been uploaded
==== Log checksum 9D885D2F48DA64CCBC285184A4C5AC02E3C2F08E9533F1137FFD939FCE241D46 ====

Содержание индексной карты (.CUE)

REM GENRE Classical
REM DATE 2015
REM DISCID E112B610
REM COMMENT ExactAudioCopy v1.0b4
PERFORMER "Tikhon Khrennikov"
TITLE "T.Khrennikov and his students (CD1)"
FILE "CD1.flac" WAVE
TRACK 01 AUDIO
TITLE "T.Khrennikov - Three Shakeapeare's Sonnets: No.112 Andante espressivo"
PERFORMER "A.Morozov, A.Lukovnikov"
INDEX 01 00:00:00
TRACK 02 AUDIO
TITLE "No.66 Moderato"
PERFORMER "A.Morozov, A.Lukovnikov"
INDEX 01 03:15:33
TRACK 03 AUDIO
TITLE "No.81. Andantino"
PERFORMER "A.Morozov, A.Lukovnikov"
INDEX 01 05:42:12
TRACK 04 AUDIO
TITLE "T.Khrennikov - Piano Concerto No.2: I. Introduction. Moderato"
PERFORMER "N.Mndoyants; Orchestra of the Ministry of Defence - R.Belyshev"
INDEX 00 08:49:00
INDEX 01 08:53:00
TRACK 05 AUDIO
TITLE "II. Sonata. Allegro con fuoco"
PERFORMER "N.Mndoyants; Orchestra of the Ministry of Defence - R.Belyshev"
INDEX 01 12:51:38
TRACK 06 AUDIO
TITLE "III. Rondo. Giocoso - Andantino"
PERFORMER "N.Mndoyants; Orchestra of the Ministry of Defence - R.Belyshev"
INDEX 01 18:21:07
TRACK 07 AUDIO
TITLE "T.Khrennikov - Violin Concerto No.1: I. Allegro con fuoco"
PERFORMER "Y.Igonina; Orchestra of the Ministry of Defence - R.Belyshev"
INDEX 00 25:29:00
INDEX 01 25:34:00
TRACK 08 AUDIO
TITLE "II. Andante espressivo"
PERFORMER "Y.Igonina; Orchestra of the Ministry of Defence - R.Belyshev"
INDEX 01 35:32:49
TRACK 09 AUDIO
TITLE "III. Allegro agitato"
PERFORMER "Y.Igonina; Orchestra of the Ministry of Defence - R.Belyshev"
INDEX 01 43:48:14
TRACK 10 AUDIO
TITLE "T.Khrennikov - Piano Concerto No.3: I. Moderato - Allegro"
PERFORMER "T.Khrennikov Jr.; Orchestra of the Ministry of Defence - R.Belyshev"
INDEX 00 49:49:00
INDEX 01 49:53:00
TRACK 11 AUDIO
TITLE "II. Moderato"
PERFORMER "T.Khrennikov Jr.; Orchestra of the Ministry of Defence - R.Belyshev"
INDEX 01 59:01:24
TRACK 12 AUDIO
TITLE "III. Allegro molto"
PERFORMER "T.Khrennikov Jr.; Orchestra of the Ministry of Defence - R.Belyshev"
INDEX 01 64:22:27
TRACK 13 AUDIO
TITLE "T.Khrennikov - Three Poems for Chorus a-capella: I. Before the rain"
PERFORMER "Chamber Choir of the Moscow Conservatory - A.Solovyov"
INDEX 00 70:04:00
INDEX 01 70:07:00
TRACK 14 AUDIO
TITLE "II. The Unharvested Field"
PERFORMER "Chamber Choir of the Moscow Conservatory - A.Solovyov"
INDEX 01 72:29:48
TRACK 15 AUDIO
TITLE "III. Harkening to the Horrors of War"
PERFORMER "Chamber Choir of the Moscow Conservatory - A.Solovyov"
INDEX 01 75:23:38
TRACK 16 AUDIO
TITLE "Hymn"
PERFORMER "Chamber Choir of the Moscow Conservatory - A.Solovyov"
INDEX 00 77:55:00
INDEX 01 77:59:00

CD2

[01] Т.Хренников - Струнный квартет: I .Прелюдия. Animato
[02] II. Интермеццо. Andante espressivo
[03] III. Печальный танец. Moderato
[04] IV. Фуга. Allegro con fuoco
[05] В.Кикта - Песня для флейты и органа
[06] Т.Чудова - Диптих для сопрано и фортепиано: I. Повесть
[07] II.Токката-плач
[08] А.Чайковский - Скрипичный концерт №2: I. Allegro moderato
[09] II. Moderato cantabile
[10] III. Allegro molto
[11] С.Голубев - Забытая увертюра №....
[12] Т.Хренников-мл. - Виолончельный концерт
[13] Е.Щербаков - Песни Тихона Хренникова
С.Журавель - флейта [5] | К.Волостнов - орган [5] | Н.Гончарова - сопрано [6-7] | А.Воронков - фортепиано [6-7] | А.Троянский - скрипка [8-10] | Е.Руманцев - виолончель [12]

Лог создания рипа

Exact Audio Copy V1.0 beta 4 from 7. December 2014
EAC extraction logfile from 17. September 2015, 1:24
Tikhon Khrennikov / T.Khrennikov and his students (CD2)
Used drive : PHILIPS PCRW804 Adapter: 1 ID: 1
Read mode : Secure
Utilize accurate stream : Yes
Defeat audio cache : Yes
Make use of C2 pointers : No
Read offset correction : -436
Overread into Lead-In and Lead-Out : No
Fill up missing offset samples with silence : Yes
Delete leading and trailing silent blocks : No
Null samples used in CRC calculations : Yes
Used interface : Native Win32 interface for Win NT & 2000
Used output format : User Defined Encoder
Selected bitrate : 1024 kBit/s
Quality : High
Add ID3 tag : No
Command line compressor : C:\Program Files (x86)\FLAC\flac.exe
Additional command line options : -T "COMMENT=rip by el coronel" -8 -V %source%
TOC of the extracted CD
Track | Start | Length | Start sector | End sector
---------------------------------------------------------
1 | 0:00.00 | 1:39.13 | 0 | 7437
2 | 1:39.13 | 2:50.58 | 7438 | 20245
3 | 4:29.71 | 2:05.12 | 20246 | 29632
4 | 6:35.08 | 2:32.67 | 29633 | 41099
5 | 9:08.00 | 6:54.00 | 41100 | 72149
6 | 16:02.00 | 7:04.51 | 72150 | 104000
7 | 23:06.51 | 5:47.24 | 104001 | 130049
8 | 28:54.00 | 7:52.62 | 130050 | 165511
9 | 36:46.62 | 7:03.33 | 165512 | 197269
10 | 43:50.20 | 2:17.55 | 197270 | 207599
11 | 46:08.00 | 6:40.00 | 207600 | 237599
12 | 52:48.00 | 11:07.00 | 237600 | 287624
13 | 63:55.00 | 14:07.00 | 287625 | 351149
Range status and errors
Selected range
Filename F:\Music\Khrennikov and his Students\CD2.wav
Peak level 96.0 %
Extraction speed 2.2 X
Range quality 100.0 %
Test CRC 8DEA0832
Copy CRC 8DEA0832
Copy OK
No errors occurred
AccurateRip summary
Track 1 not present in database
Track 2 not present in database
Track 3 not present in database
Track 4 not present in database
Track 5 not present in database
Track 6 not present in database
Track 7 not present in database
Track 8 not present in database
Track 9 not present in database
Track 10 not present in database
Track 11 not present in database
Track 12 not present in database
Track 13 not present in database
None of the tracks are present in the AccurateRip database
End of status report
---- CUETools DB Plugin V2.1.4
[CTDB TOCID: 7mapchCPndmYC2wHTgT6J9wgsOM-] disk not present in database
Submit result: 7mapchCPndmYC2wHTgT6J9wgsOM- has been uploaded
==== Log checksum 21A9E6E4030823E963CEF02019834336B6C381A372D01A56D7A6721630C97846 ====

Содержание индексной карты (.CUE)

REM GENRE Classical
REM DATE 2015
REM DISCID AC124A0D
REM COMMENT "ExactAudioCopy v1.0b4"
PERFORMER "Tikhon Khrennikov"
TITLE "T.Khrennikov and his students (CD2)"
FILE "CD2.flac" WAVE
TRACK 01 AUDIO
TITLE "T.Khrennikov -String Quartet: I. Prelude. Animato"
PERFORMER "Alabyev String Quartet"
INDEX 01 00:00:00
TRACK 02 AUDIO
TITLE "II. Intermezzo. Andante espressivo"
PERFORMER "Alabyev String Quartet"
INDEX 01 01:39:13
TRACK 03 AUDIO
TITLE "III. Sad Dance. Moderato"
PERFORMER "Alabyev String Quartet"
INDEX 01 04:29:71
TRACK 04 AUDIO
TITLE "IV. Fugue. Allegro con fuoco"
PERFORMER "Alabyev String Quartet"
INDEX 01 06:35:08
TRACK 05 AUDIO
TITLE "V.Kikta - Song for flute and organ"
PERFORMER "S.Zhuravel, K.Volostnov"
INDEX 00 09:03:00
INDEX 01 09:08:00
TRACK 06 AUDIO
TITLE "T.Chudova - Diptych for soprano and piano: I. Tale"
PERFORMER "N.Goncharova, A.Voronkov"
INDEX 00 15:57:00
INDEX 01 16:02:00
TRACK 07 AUDIO
TITLE "II. Toccata-Lament"
PERFORMER "N.Goncharova, A.Voronkov"
INDEX 01 23:06:51
TRACK 08 AUDIO
TITLE "A.Tchaikovsky - Violin Concerto No.2: I. Allegro moderato"
PERFORMER "A.Trostyansky; Chamber Orchestra 'The Seasons' - V.Bulakhov"
INDEX 00 28:49:00
INDEX 01 28:54:00
TRACK 09 AUDIO
TITLE "II. Moderato cantabile"
PERFORMER "A.Trostyansky; Chamber Orchestra 'The Seasons' - V.Bulakhov"
INDEX 01 36:46:62
TRACK 10 AUDIO
TITLE "III. Allegro molto"
PERFORMER "A.Trostyansky; Chamber Orchestra 'The Seasons' - V.Bulakhov"
INDEX 01 43:50:20
TRACK 11 AUDIO
TITLE "S.Golubkov - Forgotten ouverture No..."
PERFORMER "Chamber Orchestra 'The Seasons' - V.Bulakhov"
INDEX 00 46:03:00
INDEX 01 46:08:00
TRACK 12 AUDIO
TITLE "T.Khrennikov Jr. - Cello Concerto"
PERFORMER "E.Rumyantsev; Orchestra of the Ministry of Defence - R.Belyshev"
INDEX 00 52:43:00
INDEX 01 52:48:00
TRACK 13 AUDIO
TITLE "E.Shcherbakov - Songs by T.Khrennikov (symphonic fantasy)"
PERFORMER "Orchestra of the Ministry of Defence - R.Belyshev"
INDEX 00 63:50:00
INDEX 01 63:55:00
Исполнители:
Струнный квартет им. Алябьева
Камерный хор Московской консерватории - А.Соловьёв
Московский камерный оркестр "Времена года" - В.Булахов
Симфонический оркестр Министерства обороны РФ - Р.Белышев



Показать сообщения:    

Текущее время: 05-Дек 17:37

Часовой пояс: UTC + 3


Вы не можете начинать темы
Вы не можете отвечать на сообщения
Вы не можете редактировать свои сообщения
Вы не можете удалять свои сообщения
Вы не можете голосовать в опросах
Вы не можете прикреплять файлы к сообщениям
Вы не можете скачивать файлы