Andrea Bocelli - Il mio cinema (Rai 1) [2015, Classical crossover, Pop, Opera, HDTV 1080i]


 

[Цитировать]

-Andrea Bocelli - Il mio cinema
- Жанр : Classical crossover, Pop, Opera
ТВ-премьера : 11 декабря 2015, 21:20 (Rai 1)
Страна : Италия
Производитель: Rai 1 HD
Качество : HDTV 1080i
Формат : MKV
Запись видео : Lotos2007
Видео: MPEG4 Video (H264) 1920x1080 25fps 9 610 Kbps
Аудио: Dolby AC3 48KHz 448 Kbps (stereo)

Особая благодарность Lotos2007 за запись концерта!
--
00. APERTURA
01. Nelle tue mani
02. Se (Cinema Paradiso)
03. L'amore è una cosa meravigliosa
04. La chanson de Lara with Arisa
05. Brucia la terra
06. Moon River
07. O' sole mio with Christian De Sica
08. Por una cabeza with Belen Rodriguez
09. Cheek to Cheek with Veronica Berti
10. Sorridi amore vai with Noa
11. Be my love
12. Mi mancherai
13. What Child Is This? with Rita Ora
14. Ol' Man River
15. E più ti penso with Ariana Grande
16. No llores por mi Argentina with Lola Ponce
17. Nessun dorma-

Скриншоты

MediaInfo

General
Unique ID : 154545053990150621046623790937396012191 (0x74444B73027586499A15440159B0E49F)
Complete name : D:\Andrea Bocelli - Il mio cinema (11.12.2015) (Rai 1 HD) [by Lotos2007].mkv
Format : Matroska
Format version : Version 4 / Version 2
File size : 9.41 GiB
Duration : 2h 11mn
Overall bit rate mode : Variable
Overall bit rate : 10.3 Mbps
Encoded date : UTC 2015-12-12 04:05:59
Writing application : TMPGEnc MPEG Smart Renderer 4 Version 4.2.4.68
Writing library : TMPGEnc MPEG Smart Renderer 4 Version 4.2.4.68
Video
ID : 1
Format : AVC
Format/Info : Advanced Video Codec
Format profile : Main@L4.0
Format settings, CABAC : Yes
Format settings, ReFrames : 4 frames
Codec ID : V_MPEG4/ISO/AVC
Duration : 2h 11mn
Bit rate mode : Variable
Bit rate : 9 610 Kbps
Maximum bit rate : 9 899 Kbps
Width : 1 920 pixels
Height : 1 080 pixels
Display aspect ratio : 16:9
Frame rate mode : Constant
Frame rate : 25.000 fps
Standard : Component
Color space : YUV
Chroma subsampling : 4:2:0
Bit depth : 8 bits
Scan type : MBAFF
Scan order : Top Field First
Bits/(Pixel*Frame) : 0.185
Stream size : 8.81 GiB (94%)
Default : Yes
Forced : No
Color primaries : BT.709
Transfer characteristics : BT.709
Matrix coefficients : BT.709
Audio
ID : 2
Format : AC-3
Format/Info : Audio Coding 3
Mode extension : CM (complete main)
Format settings, Endianness : Big
Codec ID : A_AC3
Duration : 2h 11mn
Bit rate mode : Constant
Bit rate : 448 Kbps
Channel(s) : 2 channels
Channel positions : Front: L R
Sampling rate : 48.0 KHz
Bit depth : 16 bits
Compression mode : Lossy
Stream size : 421 MiB (4%)
Default : Yes
Forced : No
Menu
--



Показать сообщения:    

Текущее время: 06-Дек 22:55

Часовой пояс: UTC + 3


Вы не можете начинать темы
Вы не можете отвечать на сообщения
Вы не можете редактировать свои сообщения
Вы не можете удалять свои сообщения
Вы не можете голосовать в опросах
Вы не можете прикреплять файлы к сообщениям
Вы не можете скачивать файлы