(Classical / Symphony) Дмитрий Шостакович - Симфония № 5 / Dmitri Shostakovich - Symphony No. 5 (Orchestre de la Suisse Romande, Armin Jordan, 9.11.1987) - 2006, FLAC (tracks+.cue) lossless


 

[Цитировать]

Дмитрий Шостакович | Dmitri Shostakovich
(1906–1975)



Симфония № 5 | Symphony No. 5


Orchestre de la Suisse Romande
Armin Jordan conductor


Жанр: Classical / Symphony
Дата и место записи: Royce Hall, University of California, Los Angeles, 9.11.1987 (live)
Формат записи: DDD, Stereo
Год издания диска: 2006
Издатель (лейбл): Cascavelle
Номер по каталогу: VEL 3106
Аудиокодек: FLAC
Тип рипа: tracks+.cue
Битрейт аудио: lossless
Продолжительность: 52:38
Наличие сканов в содержимом раздачи: нет
Источник: What.CD
Релизёр: shinkibo


Tracklist / Треклист
Symphony No. 5 in D minor, Op. 47 - 52:38
I. Moderato - 18:51
  • II. Allegretto - 5:33
  • III. Largo - 15:58
  • IV. Allegro non troppo - 12:15

    -

    EAC log / Отчёт EAC

    Exact Audio Copy V1.0 beta 3 from 29. August 2011
    EAC extraction logfile from 10. September 2015, 12:31
    Armin Jordan, Orchestre de la Suisse Romande / Symphony no.5
    Used drive : hp DVD-RAM GHB0N Adapter: 0 ID: 0
    Read mode : Secure
    Utilize accurate stream : Yes
    Defeat audio cache : Yes
    Make use of C2 pointers : No
    Read offset correction : 6
    Overread into Lead-In and Lead-Out : No
    Fill up missing offset samples with silence : Yes
    Delete leading and trailing silent blocks : No
    Null samples used in CRC calculations : Yes
    Used interface : Native Win32 interface for Win NT & 2000
    Gap handling : Appended to previous track
    Used output format : User Defined Encoder
    Selected bitrate : 1024 kBit/s
    Quality : High
    Add ID3 tag : No
    Command line compressor : C:\Program Files (x86)\Exact Audio Copy\Flac\flac.exe
    Additional command line options : -8 -V -T "ARTIST=%artist%" -T "TITLE=%title%" -T "ALBUM=%albumtitle%" -T "DATE=%year%" -T "TRACKNUMBER=%tracknr%" -T "GENRE=%genre%" -T "PERFORMER=%albuminterpret%" -T "COMPOSER=%composer%" %haslyrics%--tag-from-file=LYRICS="%lyricsfile%"%haslyrics% -T "ALBUMARTIST=%albumartist%" -T "DISCNUMBER=%cdnumber%" -T "TOTALDISCS=%totalcds%" -T "TOTALTRACKS=%numtracks%" -T "COMMENT=%comment%" %source% -o %dest%
    TOC of the extracted CD
    Track | Start | Length | Start sector | End sector
    ---------------------------------------------------------
    1 | 0:00.33 | 18:51.37 | 33 | 84894
    2 | 18:51.70 | 5:32.58 | 84895 | 109852
    3 | 24:24.53 | 15:58.32 | 109853 | 181734
    4 | 40:23.10 | 12:15.23 | 181735 | 236882
    Track 1
    Filename E:\WHAT.CD\000TEMP\Shostakovich - Symphony no.5 - Armin Jordan (1987, 2006 edition) [FLAC]\01 - Symphony no.5 - 1.Moderato.wav
    Pre-gap length 0:00:02.44
    Peak level 90.0 %
    Extraction speed 1.3 X
    Track quality 100.0 %
    Test CRC 2CD503A3
    Copy CRC 2CD503A3
    Accurately ripped (confidence 2) [5CD22029] (AR v1)
    Copy OK
    Track 2
    Filename E:\WHAT.CD\000TEMP\Shostakovich - Symphony no.5 - Armin Jordan (1987, 2006 edition) [FLAC]\02 - Symphony no.5 - 2.Allegretto.wav
    Pre-gap length 0:00:07.00
    Peak level 77.8 %
    Extraction speed 1.6 X
    Track quality 100.0 %
    Test CRC 1E4F94C3
    Copy CRC 1E4F94C3
    Accurately ripped (confidence 2) [D823051D] (AR v1)
    Copy OK
    Track 3
    Filename E:\WHAT.CD\000TEMP\Shostakovich - Symphony no.5 - Armin Jordan (1987, 2006 edition) [FLAC]\03 - Symphony no.5 - 3.Largo.wav
    Pre-gap length 0:00:07.00
    Peak level 54.9 %
    Extraction speed 1.9 X
    Track quality 100.0 %
    Test CRC 0A9C8A1D
    Copy CRC 0A9C8A1D
    Accurately ripped (confidence 2) [60AB3F9F] (AR v1)
    Copy OK
    Track 4
    Filename E:\WHAT.CD\000TEMP\Shostakovich - Symphony no.5 - Armin Jordan (1987, 2006 edition) [FLAC]\04 - Symphony no.5 - 4.Allegro non troppo.wav
    Pre-gap length 0:00:04.00
    Peak level 96.0 %
    Extraction speed 2.2 X
    Track quality 100.0 %
    Test CRC E91D46FE
    Copy CRC E91D46FE
    Accurately ripped (confidence 2) [B176505A] (AR v1)
    Copy OK
    All tracks accurately ripped
    No errors occurred
    End of status report
    ==== Log checksum 6CC05EBBFD0C8E6BC2AA9F7690790AD202B1618B452C8E515EC083AF9DEC92BC ====

    auCDtect Task Manager log / Отчёт auCDtect Task Manager

    -----------------------
    DON'T MODIFY THIS FILE
    -----------------------
    PERFORMER: auCDtect Task Manager, ver. 1.5.1RC3 build 1.5.1.4
    Copyright (c) 2008-2010 y-soft. All rights reserved
    ANALYZER: auCDtect: CD records authenticity detector, version 0.8.2
    Copyright (c) 2004 Oleg Berngardt. All rights reserved.
    Copyright (c) 2004 Alexander Djourik. All rights reserved.
    FILE: 02 - Symphony No. 5 in D minor, Op. 47 - II. Allegretto.flac
    Size: 20770259 Hash: DC290B14405D1F3792F0F817F1847F11 Accuracy: -m0
    Conclusion: CDDA 100%
    Signature: 4E7F12656829DBD590983F072A272EA98A3613F8
    FILE: 01 - Symphony No. 5 in D minor, Op. 47 - I. Moderato.flac
    Size: 70618234 Hash: E83D3EF128062E9904FED53165D814A3 Accuracy: -m0
    Conclusion: CDDA 99%
    Signature: 499202C24C981E1DA0E27A3B4CC59B02DDA9823B
    FILE: 04 - Symphony No. 5 in D minor, Op. 47 - IV. Allegro non troppo.flac
    Size: 55838336 Hash: D6A60B0D945EBBC87E8B1837D83DCA82 Accuracy: -m0
    Conclusion: CDDA 100%
    Signature: B7D31D1EF1F4C35746792EFBBB4095E714EF4CC5
    FILE: 03 - Symphony No. 5 in D minor, Op. 47 - III. Largo.flac
    Size: 55177236 Hash: A968B6FA4D1F0ED0DF3226EFCD5E33A9 Accuracy: -m0
    Conclusion: CDDA 100%
    Signature: 576AF0ABC7036803E30EEECD29E25E02E7D054AC

    CUETools log / Отчёт CUETools

    [CUETools log; Date: 14.12.2015 10:51:03; Version: 2.1.4]
    Pregap length 00:00:33.
    [AccurateRip ID: 00095c17-0024c8f1-280c5604] found.
    Track [ CRC | V2 ] Status
    01 [5cd22029|966aca01] (2+0/2) Accurately ripped
    02 [d823051d|72280dda] (2+0/2) Accurately ripped
    03 [60ab3f9f|d42d5fbd] (2+0/2) Accurately ripped
    04 [b176505a|e46f2840] (2+0/2) Accurately ripped
    Track Peak [ CRC32 ] [W/O NULL] [ LOG ]
    -- 96,0 [9F193EBA] [90E03582]
    01 90,0 [2CD503A3] [CBA2A568] CRC32
    02 77,8 [1E4F94C3] [BAC0DFBA] CRC32
    03 54,9 [0A9C8A1D] [23DF662A] CRC32
    04 96,0 [E91D46FE] [6DD9BC9C] CRC32

    CUE sheet

    TITLE "Dmitri Shostakovich: Symphony No. 5"
    PERFORMER "Armin Jordan"
    REM GENRE Classical
    REM DISCID 280C5604
    REM COMMENT "ExactAudioCopy v1.0b3"
    FILE "01 - Symphony No. 5 in D minor, Op. 47 - I. Moderato.flac" WAVE
    TRACK 01 AUDIO
    TITLE "Symphony No. 5 in D minor, Op. 47: I. Moderato"
    PERFORMER "Orchestre de la Suisse Romande. Armin Jordan, conductor"
    REM DATE 1987
    PREGAP 00:00:33
    INDEX 01 00:00:00
    TRACK 02 AUDIO
    TITLE "Symphony No. 5 in D minor, Op. 47: II. Allegretto"
    PERFORMER "Orchestre de la Suisse Romande. Armin Jordan, conductor"
    REM DATE 1987
    INDEX 00 18:44:37
    FILE "02 - Symphony No. 5 in D minor, Op. 47 - II. Allegretto.flac" WAVE
    INDEX 01 00:00:00
    TRACK 03 AUDIO
    TITLE "Symphony No. 5 in D minor, Op. 47: III. Largo"
    PERFORMER "Orchestre de la Suisse Romande. Armin Jordan, conductor"
    REM DATE 1987
    INDEX 00 05:25:58
    FILE "03 - Symphony No. 5 in D minor, Op. 47 - III. Largo.flac" WAVE
    INDEX 01 00:00:00
    TRACK 04 AUDIO
    TITLE "Symphony No. 5 in D minor, Op. 47: IV. Allegro non troppo"
    PERFORMER "Orchestre de la Suisse Romande. Armin Jordan, conductor"
    REM DATE 1987
    INDEX 00 15:54:32
    FILE "04 - Symphony No. 5 in D minor, Op. 47 - IV. Allegro non troppo.flac" WAVE
    INDEX 01 00:00:00
    -



  • Показать сообщения:    

    Текущее время: 06-Дек 17:11

    Часовой пояс: UTC + 3


    Вы не можете начинать темы
    Вы не можете отвечать на сообщения
    Вы не можете редактировать свои сообщения
    Вы не можете удалять свои сообщения
    Вы не можете голосовать в опросах
    Вы не можете прикреплять файлы к сообщениям
    Вы не можете скачивать файлы