(Weihnachtslied, Christmas carol, колядки, Classical) VA-Festliche Weihnacht-1998 - 1998, FLAC (image+.cue) lossless


Статистика раздачи [Обновить пиров]
Размер:  232 MB   |    Зарегистрирован:  8 месяцев 20 дней   |    Скачан:  1 раз

Полного источника не было: 12 дней

 
   
 
 
 

[Цитировать]

VA Festliche Weihnacht-1998 / сборник Радостное Рождество
Жанр: (Weihnachtslied/Christmas carol/колядки/Classical)
Страна-производитель диска: Deutschland
Год издания диска: 1998
Издатель (лейбл): Capriccio Delta Music GmBH
Номер по каталогу: 630bdd18
Дата записи: 1998
Аудиокодек: FLAC
Тип рипа: image+.cue
Битрейт аудио: lossless
Продолжительность: 50:37.62
Источник: собственный рип
Наличие сканов в содержимом раздачи: да
Треклист:
01. Alle Jahre wieder Dresdner Kreuzchor ♬ 01:02.37
02. Fröhliche Weihnacht Prey, Hermann ♬ 02:18.60
03. Leise rieselt der Schnee Dresdner Kreuzchor ♬ 01:32.28
04. Kling, Glöckchen, kling Tölzer Knabenchor ♬ 01:24.00
05. Morgen, Kinder, wird's was geben Tölzer Knabenchor ♬ 00:54.62
06. Ihr Kinderlein kommet Pueri Cantores ♬ 02:07.38
07. O Tannenbaum Tölzer Knabenchor ♬ 01:41.72
08. Vom Himmel hoch, o Englein kommt Tölzer Knabenchor ♬ 02:12.25
09. Es ist ein Ros entsprungen Wiener Sängerknaben ♬ 02:55.53
10. Tochter Zion, freue Dich Thomanerchor ♬ 02:14.00
11. Maria durch ein Dornwald ging Thomanerchor ♬ 02:08.00
12. Freu Dich Erd' und Sternenzelt Pueri Cantores ♬ 02:20.62
13. Es wird scho glei dumpa Prey, Hermann ♬ 02:00.13
14. In dulci jubilo Tölzer Knabenchor ♬ 02:06.12
15. Kommet Ihr Hirten Prey, Hermann ♬ 01:55.63
16. O Jesulein suess, o Jesulein mild Dresdner Kreuzchor ♬ 02:16.00
17. Still, still, still, weil's Kindlein schlafen will Prey, Hermann ♬ 03:43.37
18. Stille Nacht, heilige Nacht Dresdner Kreuzchor ♬ 03:16.38
19. Andachtsjodler Orchester Konrad Plaickner ♬ 01:40.00
20. Aba Heidschi Bumbeidschi Pueri Cantores ♬ 02:44.25
21. Am Weihnachtsbaum Pueri Cantores ♬ 02:06.50
22. Gloria, Gott in der Hoeh' Wiener Sängerknaben ♬ 00:58.00
23. O Du Fröhliche Thomanerchor ♬ 02:02.50
24. Süsser die Glocken nie klingen Pueri Cantores ♬ 02:55.12
Исполнители:
алфавітний список:
Dresdner Kreuzchor | дрезденский хор Крестовой церкви
Orchester Konrad Plaickner | оркестр Конрада Плаикнера
Prey, Hermann | Герман Прей
Pueri Cantores | Пьюри Канторес
Thomanerchor | хор мальчиков церкви св. Томаса
Tölzer Knabenchor | тёльцский хор мальчиков
Wiener Sängerknaben | венские поющие мальчики

Лог создания рипа

Linux, лог имеет 157456 знаков  которые непомещаются сюда. Полный лог va-festliche_weihnacht.flac.log - в папке а тута "цитата":
+ getopts 1a:bBc:C:d:Defghj:klLmMnNo:pPq:r:s:S:t:T:UvVxX:w:W:z opt
+ case "$opt" in
+ OUTPUTTYPE=flac:-1
+ getopts 1a:bBc:C:d:Defghj:klLmMnNo:pPq:r:s:S:t:T:UvVxX:w:W:z opt
+ case "$opt" in
+ ACTIONS=default,cue,replaygain,playlist
+ getopts 1a:bBc:C:d:Defghj:klLmMnNo:pPq:r:s:S:t:T:UvVxX:w:W:z opt
+ case "$opt" in
+ EXTRAVERBOSE=1
+ getopts 1a:bBc:C:d:Defghj:klLmMnNo:pPq:r:s:S:t:T:UvVxX:w:W:z opt
+ case "$opt" in
+ EXTRAVERBOSE=2
+ getopts 1a:bBc:C:d:Defghj:klLmMnNo:pPq:r:s:S:t:T:UvVxX:w:W:z opt
+ case "$opt" in
+ EXTRAVERBOSE=3
+ getopts 1a:bBc:C:d:Defghj:klLmMnNo:pPq:r:s:S:t:T:UvVxX:w:W:z opt
+ case "$opt" in
+ INTERACTIVE=n
+ getopts 1a:bBc:C:d:Defghj:klLmMnNo:pPq:r:s:S:t:T:UvVxX:w:W:z opt
+ shift 8
+ '[' n = y ']'
+ echo /dev/cdrom
+ grep -i '.flac$'
+ '[' -n '' ']'
+ '[' '' = flac ']'
+ '[' '' = '' ']'
+ for DEFAULT_CDROMREADER in '$DEFAULT_CDROMREADERS'
+ new_checkexec cdparanoia
+ '[' '!' cdparanoia = '' ']'
++ cut '-d ' -f2
++ echo cdparanoia
+ X=cdparanoia
++ which cdparanoia
++ which cdparanoia
+ '[' /usr/bin/cdparanoia = '' ']'
++ which cdparanoia
+ '[' '!' -x /usr/bin/cdparanoia ']'
+ return 0
+ CDROMREADERSYNTAX=cdparanoia
+ break
+ '[' cdparanoia = '' ']'
+ '[' y = y ']'
+ case "$CDROMREADERSYNTAX" in
+ '[' n = y ']'
+ '[' n = y ']'
+ '[' 0 -gt 0 ']'
+ DOCDDB=n
+ DOREAD=n
+ DONORMALIZE=n
+ DOPREPROCESS=n
+ DOENCODE=n
+ DOPOSTPROCESS=n
+ DOTAG=n
+ DOMOVE=n
+ DOREPLAYGAIN=n
+ DOPLAYLIST=n
+ DOCLEAN=n
+ '[' '' '!=' y ']'
+ DOCUE=n
++ echo default,cue,replaygain,playlist
++ tr , ' '
+ for ACTION in '$(echo $ACTIONS | tr , \ )'
+ case $ACTION in
+ DOCDDB=y
+ DOREAD=y
+ DOENCODE=y
+ DOTAG=y
+ DOMOVE=y
+ DOCLEAN=y
+ for ACTION in '$(echo $ACTIONS | tr , \ )'
+ case $ACTION in
+ DOCUE=y
+ MAKECUEFILE=y
+ for ACTION in '$(echo $ACTIONS | tr , \ )'
+ case $ACTION in
+ DOCDDB=y
+ DOREAD=y
+ DOENCODE=y
+ DOTAG=y
+ DOMOVE=y
+ DOREPLAYGAIN=y
+ for ACTION in '$(echo $ACTIONS | tr , \ )'
+ case $ACTION in
+ DOCDDB=y
+ DOPLAYLIST=y
+ '[' n = y ']'
++ echo year,genre
++ tr , ' '
+ for SHOWCDDBFIELD in '$(echo $SHOWCDDBFIELDS | tr , \ )'
+ case $SHOWCDDBFIELD in
+ SHOWCDDBYEAR=y
+ for SHOWCDDBFIELD in '$(echo $SHOWCDDBFIELDS | tr , \ )'
+ case $SHOWCDDBFIELD in
+ SHOWCDDBGENRE=y
+ '[' X/dev/cdrom '!=' X ']'
+ '[' cdparanoia = cdda2wav ']'
+ '[' cdparanoia = icedax ']'
+ '[' '!' -e /dev/cdrom -a Xy = Xy ']'
+ '[' X = Xy ']'
+ '[' X = Xy ']'
+ '[' n = y ']'
+ '[' Xflac:-1 = X ']'
+ case "$CDROMREADERSYNTAX" in
+ CDROMREADER=cdparanoia
+ CDROMREADEROPTS=
+ case "$NORMALIZERSYNTAX" in
+ NORMALIZER=normalize-audio
+ NORMALIZEROPTS=
+ grep :
++ tr '|' ' '
+ for OUTPUT in '"$(echo "$OUTPUTTYPE" | tr \  \|| tr , \ | tr \| \ )"'
+ case "$OUTPUT" in
++ echo flac:-1
++ cut -d: -f2-
+ FLACENCODEROPTSCLI=-1
++ echo flac:-1
++ tr , ' '
+ for OUTPUT in '"$(echo "$OUTPUTTYPE" | tr , \ )"'
++ echo flac:-1
++ cut -d: -f1
+ TEMPOUTPUT=flac
+ TEMPOUTPUTTYPE=flac
+ OUTPUTTYPE=flac
++ echo flac
++ tr , ' '
+ for OUTPUT in '$(echo $OUTPUTTYPE | tr , \ )'
+ case $OUTPUT in
+ '[' default = default ']'

Содержание индексной карты (.CUE)

PERFORMER "різні виконавці"
TITLE "Festliche Weihnacht"
FILE "VA-Festliche_Weihnacht-1998.flac" WAVE
TRACK 01 AUDIO
TITLE "Alle Jahre wieder"
PERFORMER "Dresdner Kreuzchor"
INDEX 01 00:00:00
TRACK 02 AUDIO
TITLE "Fröhliche Weihnacht"
PERFORMER "Prey, Hermann"
INDEX 01 01:02:37
TRACK 03 AUDIO
TITLE "Leise rieselt der Schnee"
PERFORMER "Dresdner Kreuzchor"
INDEX 01 03:21:22
TRACK 04 AUDIO
TITLE "Kling, Glöckchen, kling"
PERFORMER "Tölzer Knabenchor"
INDEX 01 04:53:50
TRACK 05 AUDIO
TITLE "Morgen, Kinder, wird's was geben"
PERFORMER "Tölzer Knabenchor"
INDEX 01 06:17:50
TRACK 06 AUDIO
TITLE "Ihr Kinderlein kommet"
PERFORMER "Pueri Cantores"
INDEX 01 07:12:37
TRACK 07 AUDIO
TITLE "O Tannenbaum"
PERFORMER "Tölzer Knabenchor"
INDEX 01 09:20:00
TRACK 08 AUDIO
TITLE "Vom Himmel hoch, o Englein kommt"
PERFORMER "Tölzer Knabenchor"
INDEX 01 11:01:72
TRACK 09 AUDIO
TITLE "Es ist ein Ros entsprungen"
PERFORMER "Wiener Sängerknaben"
INDEX 01 13:14:22
TRACK 10 AUDIO
TITLE "Tochter Zion, freue Dich"
PERFORMER "Thomanerchor"
INDEX 01 16:10:00
TRACK 11 AUDIO
TITLE "Maria durch ein Dornwald ging"
PERFORMER "Thomanerchor"
INDEX 01 18:24:00
TRACK 12 AUDIO
TITLE "Freu Dich Erd ' und Sternenzelt"
PERFORMER "Pueri Cantores"
INDEX 01 20:32:00
TRACK 13 AUDIO
TITLE "Es wird scho glei dumpa"
PERFORMER "Prey, Hermann"
INDEX 01 22:52:62
TRACK 14 AUDIO
TITLE "In dulci jubilo"
PERFORMER "Tölzer Knabenchor"
INDEX 01 24:53:00
TRACK 15 AUDIO
TITLE "Kommet Ihr Hirten"
PERFORMER "Prey, Hermann"
INDEX 01 26:59:12
TRACK 16 AUDIO
TITLE "O Jesulein suess, o Jesulein mild"
PERFORMER "Dresdner Kreuzchor"
INDEX 01 28:55:00
TRACK 17 AUDIO
TITLE "Still, still, still, weil's Kindlein schlafen will"
PERFORMER "Prey, Hermann"
INDEX 01 31:11:00
TRACK 18 AUDIO
TITLE "Stille Nacht, heilige Nacht"
PERFORMER "Dresdner Kreuzchor"
INDEX 01 34:54:37
TRACK 19 AUDIO
TITLE "Andachtsjodler"
PERFORMER "Orchester Konrad Plaickner"
INDEX 01 38:11:00
TRACK 20 AUDIO
TITLE "Aba Heidschi Bumbeidschi"
PERFORMER "Pueri Cantores"
INDEX 01 39:51:00
TRACK 21 AUDIO
TITLE "Am Weihnachtsbaum"
PERFORMER "Pueri Cantores"
INDEX 01 42:35:25
TRACK 22 AUDIO
TITLE "Gloria, Gott in der Hoeh'"
PERFORMER "Wiener Sängerknaben"
INDEX 01 44:42:00
TRACK 23 AUDIO
TITLE "O Du Fröhliche"
PERFORMER "Thomanerchor"
INDEX 01 45:40:00
TRACK 24 AUDIO
TITLE "Süsser die Glocken nie klingen"
PERFORMER "Pueri Cantores"
INDEX 01 47:42:50

Лог проверки качества

см. "Лог создания рипа"

Скриншот спектра частот

нет
-Ещё один сборник западно-европейских колядок преимущественно в исполнении известных детских хоров Германии.
К сожалению иных визуальных материалов не имею, поэтому только лицевая сорона CD.
[teatrix.ru].t22710.torrent 
Торрент: Зарегистрирован [ 2016-03-21 00:34 ] · 7F9A7A1EE5212EFACB010D9A13476E883733663A

Скачать .torrent

Скачать

37 KB

Статус: проверено
Скачан: 1 раз
Размер: 232 MB
terms.php



Быстрый ответ

Имя:

      
Для отправки сообщений необходимо включить JavaScript
Показать сообщения:    

Текущее время: 10-Дек 04:13

Часовой пояс: UTC + 3


Вы можете начинать темы
Вы можете отвечать на сообщения
Вы не можете редактировать свои сообщения
Вы не можете удалять свои сообщения
Вы не можете голосовать в опросах
Вы не можете прикреплять файлы к сообщениям
Вы можете скачивать файлы