(Classical) Royal Philharmonic Orchestra - Here Come The Classics Volume One (Чайковский, Ravel, Bizet, Pachelbel, Puccini, Mascagni, Sousa, Barber, Offenbach, Von Suppe, Elgar, Strauss) - 2002, FLAC (image+.cue) lossless


 

[Цитировать]

Royal Philharmonic Orchestra - Here Come The Classics Volume One
Жанр: Classical
Страна-производитель диска: Россия
Год издания диска: 2002
Издатель (лейбл): Imagination/megaлайнер рекордз
Номер по каталогу: RPO 001 CD
Дата записи: 7-10.01.2002
Аудиокодек: FLAC
Тип рипа: image+.cue
Битрейт аудио: lossless
Продолжительность: 76.08
Источник: собственный рип
Наличие сканов в содержимом раздачи: да
Треклист:
1.Von Suppe - Overture, Light Cavalry
2.Elgar - Chanson De Matin
3.Elgar - Pomp And Circumstance March No. 1
4.Johann Strauss - On The Beautiful Blue Danube
5.Tchaikovsky - Piano Concerto (Allegro Con Fuoco)
6.Pachelbel - Canon In D
7.Bizet - Carmen Suite: Prelude And Aragonaise / Les Toreadors
8.Barber - Adagio For Strings
9.Sousa - The Liberty Bell March
10.Mascagni - Intermezzo From Cavalleria Rusticana
11.Puccini - Nessun Dorma From Turandot
12.Offenbach - Can-Can From Orpheus In The Underworld
13.Ravel - Bolero
Исполнители:
The Royal Philharmonic Orchestra,
Philip Ellis - conductor
Lucy Parham - piano (5)
Wynne Evans - tenor (11)

Лог создания рипа

Exact Audio Copy V1.0 beta 3 from 29. August 2011
Отчёт EAC об извлечении, выполненном 16. декабря 2015, 13:42
Royal Philharmonic Orchestra / Here Comes The Classics Volume 1
Дисковод: TSSTcorpCDDVDW SN-208BB Adapter: 1 ID: 0
Режим чтения : Достоверность
Использование точного потока : Да
Отключение кэша аудио : Да
Использование указателей C2 : Нет
Коррекция смещения при чтении : 6
Способность читать области Lead-in и Lead-out : Нет
Заполнение пропущенных сэмплов тишиной : Да
Удаление блоков с тишиной в начале и конце : Нет
При вычислениях CRC использовались нулевые сэмплы : Да
Интерфейс : Встроенный Win32-интерфейс для Win NT/2000
Выходной формат : Пользовательский кодировщик
Выбранный битрейт : 128 kBit/s
Качество : Высокий
Добавление ID3-тега : Нет
Утилита сжатия : C:\Program Files (x86)\Exact Audio Copy\Flac\flac.exe
Дополнительные параметры : -V -8 -T "Date=%year%" -T "Genre=%genre%" %source%
TOC извлечённого CD
Трек | Старт | Длительность | Начальный сектор | Конечный сектор
---------------------------------------------------------------------
1 | 0:00.00 | 6:44.31 | 0 | 30330
2 | 6:44.31 | 3:14.53 | 30331 | 44933
3 | 9:59.09 | 5:33.29 | 44934 | 69937
4 | 15:32.38 | 9:52.72 | 69938 | 114409
5 | 25:25.35 | 7:08.62 | 114410 | 146571
6 | 32:34.22 | 4:40.29 | 146572 | 167600
7 | 37:14.51 | 6:01.28 | 167601 | 194703
8 | 43:16.04 | 7:46.54 | 194704 | 229707
9 | 51:02.58 | 2:26.46 | 229708 | 240703
10 | 53:29.29 | 3:18.08 | 240704 | 255561
11 | 56:47.37 | 2:59.74 | 255562 | 269060
12 | 59:47.36 | 2:12.46 | 269061 | 279006
13 | 62:00.07 | 14:40.18 | 279007 | 345024
Характеристики диапазона извлечения и сообщения об ошибках
Выбранный диапазон
Имя файла C:\Users\Samsung\Documents\Royal Philharmonic Orchestra - Here Comes The Classics Volume 1\Royal Philharmonic Orchestra - Here Comes The Classics Volume 1.wav
Пиковый уровень 100.0 %
Скорость извлечения 4.8 X
Качество диапазона 99.9 %
CRC теста F7339121
CRC копии F7339121
Копирование... OK
Ошибок не произошло
AccurateRip: сводка
Трек 1 отсутствует в базе данных
Трек 2 отсутствует в базе данных
Трек 3 отсутствует в базе данных
Трек 4 отсутствует в базе данных
Трек 5 отсутствует в базе данных
Трек 6 отсутствует в базе данных
Трек 7 отсутствует в базе данных
Трек 8 отсутствует в базе данных
Трек 9 отсутствует в базе данных
Трек 10 отсутствует в базе данных
Трек 11 отсутствует в базе данных
Трек 12 отсутствует в базе данных
Трек 13 отсутствует в базе данных
Ни одного трека нет в базе AccurateRip
Конец отчёта
==== Контрольная сумма отчёта 60BA54B6A7445B82E6FAE78713966643E2050E0211D6C5EEDB89EADCE40A624E ====

Содержание индексной карты (.CUE)

REM GENRE Classical
REM DATE 2002
REM DISCID B711F80D
REM COMMENT "ExactAudioCopy v1.0b3"
CATALOG 0000000000000
PERFORMER "Royal Philharmonic Orchestra"
TITLE "Here Comes The Classics Volume 1"
FILE "Royal Philharmonic Orchestra - Here Comes The Classics Volume 1.flac" WAVE
TRACK 01 AUDIO
TITLE "Overture, Light Cavalry"
PERFORMER "Von Suppe"
INDEX 01 00:00:00
TRACK 02 AUDIO
TITLE "Chanson de Matin"
PERFORMER "Elgar"
INDEX 01 06:44:31
TRACK 03 AUDIO
TITLE "Pomp And Circumstance March No. 1"
PERFORMER "Elgar"
INDEX 01 09:59:09
TRACK 04 AUDIO
TITLE "On The Beautiful Blue Danube"
PERFORMER "Johann Strauss"
INDEX 01 15:32:38
TRACK 05 AUDIO
TITLE "Piano Concerto (Allegro Con Fuoco)"
PERFORMER "Tchaikovsky"
INDEX 01 25:25:35
TRACK 06 AUDIO
TITLE "Canon in D"
PERFORMER "Pachelbel"
INDEX 01 32:34:22
TRACK 07 AUDIO
TITLE "Carmen Suite: Perlude and Aragonaise, Les Toreadors"
PERFORMER "Bizet"
INDEX 01 37:14:51
TRACK 08 AUDIO
TITLE "Adagio For Strings"
PERFORMER "Barber"
INDEX 01 43:16:04
TRACK 09 AUDIO
TITLE "The LIberty Bell March"
PERFORMER "Sousa"
INDEX 01 51:02:58
TRACK 10 AUDIO
TITLE "Intermezzo From Cavalleria Rusticana"
PERFORMER "Mascagni"
INDEX 01 53:29:29
TRACK 11 AUDIO
TITLE "Nessun Dorma From Turandot"
PERFORMER "Puccini"
INDEX 01 56:47:37
TRACK 12 AUDIO
TITLE "Can-Can From Orpheus In The Underworld"
PERFORMER "Offenbach"
INDEX 01 59:47:36
TRACK 13 AUDIO
TITLE "Bolero"
PERFORMER "Ravel"
INDEX 01 62:00:07



Показать сообщения:    

Текущее время: 10-Дек 10:01

Часовой пояс: UTC + 3


Вы не можете начинать темы
Вы не можете отвечать на сообщения
Вы не можете редактировать свои сообщения
Вы не можете удалять свои сообщения
Вы не можете голосовать в опросах
Вы не можете прикреплять файлы к сообщениям
Вы не можете скачивать файлы