(Classical) Jules Massenet - Amoureuse - Sacred & Profane Arias - Rosamund Illing, Australian Opera & Ballet Orchestra, Richard Bonynge - 2006, FLAC (image+.cue) lossless


 

[Цитировать]

Jules Massenet - Amoureuse - Sacred & Profane Arias - Rosamund Illing, Australian Opera & Ballet Orchestra, Richard Bonynge
Жанр: Classical
Страна-производитель диска: Australia
Год издания диска: 2006
Издатель (лейбл): Melba Recordings
Номер по каталогу: MR 301106
Дата записи: 1998
Аудиокодек: FLAC
Тип рипа: image+.cue
Битрейт аудио: lossless
Продолжительность: 75:41
Источник: собственный рип
Наличие сканов в содержимом раздачи: да
Треклист:
Jules Massenet (1842-1912)
Sacred and Profane Arias
[1] Saint Thérèse Prie
[2] Amoureuse
[3] La Grand' Tante: Je vais bientôt quitter
[4] Marie Magdeleine: O mes soeurs
[5] Eve: O nuit
[6] La Vierge: O mon fils
[7] La Vierge: Rêve infini!
[8] Hérodiade: Il est doux, il est bon
[9] Le Cid: Plus de tourments
[10] Le Cid: Pleurez mes yeux
[11] Sapho: Ce que j'appelle beau
[12] Sapho: Ah, vous avez parlé
[13] Sapho: Solitude-demain, je partirai
[14] Sapho: Vais-je rester ici?
[15] Grisélidis: Loÿs! Loÿs!
[16] Chérubin: Vous parlez de péril
[17] Ariane: Avec tes compangnes guerrières
[18] Ariane: Je comprends un héros! Un roi
[19] Ariane: Ils mentaient! A quoi bon
Исполнители:
Rosamund Illing soprano
Australian Opera & Ballet Orchestra
Richard Bonynge
conductor

Лог создания рипа

Exact Audio Copy V1.1 from 23. June 2015
EAC extraction logfile from 16. December 2015, 2:11
Rosamund Illing, Australian Opera & Ballet Orchestra, Richard Bonynge / Massenet - Amoureuse - Sacred & Profane Arias
Used drive : HL-DT-STDVDRAM GU70N Adapter: 1 ID: 0
Read mode : Secure
Utilize accurate stream : Yes
Defeat audio cache : Yes
Make use of C2 pointers : No
Read offset correction : 48
Overread into Lead-In and Lead-Out : No
Fill up missing offset samples with silence : Yes
Delete leading and trailing silent blocks : No
Null samples used in CRC calculations : Yes
Used interface : Native Win32 interface for Win NT & 2000
Used output format : User Defined Encoder
Selected bitrate : 128 kBit/s
Quality : High
Add ID3 tag : No
Command line compressor : C:\Program Files (x86)\Exact Audio Copy\Flac\flac.exe
Additional command line options : -V -8 -T "Date=%year%" -T "Genre=%genre%" %source%
TOC of the extracted CD
Track | Start | Length | Start sector | End sector
---------------------------------------------------------
1 | 0:00.51 | 3:31.27 | 51 | 15902
2 | 3:32.03 | 3:04.46 | 15903 | 29748
3 | 6:36.49 | 2:46.62 | 29749 | 42260
4 | 9:23.36 | 4:43.71 | 42261 | 63556
5 | 14:07.32 | 2:57.48 | 63557 | 76879
6 | 17:05.05 | 5:09.59 | 76880 | 100113
7 | 22:14.64 | 5:12.36 | 100114 | 123549
8 | 27:27.25 | 4:52.20 | 123550 | 145469
9 | 32:19.45 | 3:01.49 | 145470 | 159093
10 | 35:21.19 | 4:59.53 | 159094 | 181571
11 | 40:20.72 | 2:33.60 | 181572 | 193106
12 | 42:54.57 | 3:07.42 | 193107 | 207173
13 | 46:02.24 | 5:57.30 | 207174 | 233978
14 | 51:59.54 | 4:03.16 | 233979 | 252219
15 | 56:02.70 | 3:48.29 | 252220 | 269348
16 | 59:51.24 | 1:54.29 | 269349 | 277927
17 | 61:45.53 | 3:19.19 | 277928 | 292871
18 | 65:04.72 | 4:32.58 | 292872 | 313329
19 | 69:37.55 | 6:02.15 | 313330 | 340494
Range status and errors
Selected range
Filename C:\temp\Massenet - Amoureuse - Sacred & Profane Arias\Massenet - Amoureuse - Sacred & Profane Arias.wav
Peak level 52.1 %
Extraction speed 2.2 X
Range quality 100.0 %
Test CRC A7184BDB
Copy CRC A7184BDB
Copy OK
No errors occurred
AccurateRip summary
Track 1 accurately ripped (confidence 2) [548B0643] (AR v2)
Track 2 accurately ripped (confidence 2) [5478A4A2] (AR v2)
Track 3 accurately ripped (confidence 2) [65388379] (AR v2)
Track 4 accurately ripped (confidence 2) [FBF85181] (AR v2)
Track 5 accurately ripped (confidence 2) [DF9168E6] (AR v2)
Track 6 accurately ripped (confidence 2) [C9326DCA] (AR v2)
Track 7 accurately ripped (confidence 2) [8B41DF7D] (AR v2)
Track 8 accurately ripped (confidence 2) [1B737BD9] (AR v2)
Track 9 accurately ripped (confidence 2) [B49726AC] (AR v2)
Track 10 accurately ripped (confidence 2) [96BF41E5] (AR v2)
Track 11 accurately ripped (confidence 2) [26C8A0D0] (AR v2)
Track 12 accurately ripped (confidence 2) [BB055346] (AR v2)
Track 13 accurately ripped (confidence 2) [75A0A06A] (AR v2)
Track 14 accurately ripped (confidence 2) [550FE503] (AR v2)
Track 15 accurately ripped (confidence 2) [FBD25E5E] (AR v2)
Track 16 accurately ripped (confidence 2) [B6337AD7] (AR v2)
Track 17 accurately ripped (confidence 2) [648BEB7E] (AR v2)
Track 18 accurately ripped (confidence 2) [5CF7A2DD] (AR v2)
Track 19 accurately ripped (confidence 2) [354FFB52] (AR v2)
All tracks accurately ripped
End of status report
==== Log checksum 0C2917A7E93CA5BBC2DA7FA48FE8EC04BB06690EFBA8EEF76EEF0559D01EE361 ====



Показать сообщения:    

Текущее время: 04-Дек 19:19

Часовой пояс: UTC + 3


Вы не можете начинать темы
Вы не можете отвечать на сообщения
Вы не можете редактировать свои сообщения
Вы не можете удалять свои сообщения
Вы не можете голосовать в опросах
Вы не можете прикреплять файлы к сообщениям
Вы не можете скачивать файлы