Звуки шума / Sound of Noise (Ула Симонcсон / Ola Simonsson, Юханнес Шерне-Нильссон / Johannes Stjärne Nilsson) [2010, Швеция, Франция, комедия, криминал, музыкальный, BDRip] MVO R5


 

[Цитировать]

Звуки шума / Sound of Noise
Страна: Швеция, Франция
Жанр: комедия, криминал, музыкальный
Год выпуска: 2010
Продолжительность: 01:42:12
Перевод: Профессиональный (многоголосый закадровый) Лицензия
Cубтитры: нет

Режиссер: Ула Симонcсон / Ola Simonsson, Юханнес Шерне-Нильссон / Johannes Stjärne Nilsson
В ролях: Бенгт Нильссон, Санна Перссон, Магнус Бёрьесон, Маркус Бой, Фредерик Мюр, Андерс Вестергорд, Юханнес Бьорк, Свен Эльстрём, Ральф Карлссон, Паула МакМанус
Описание: Полицейский Амадей Варнебринг родом из семьи, в которой каждый — одаренный музыкант… кроме Амадея. Оттого он всячески ненавидит музыку в любом ее виде. Но как назло его новым заданием становится поиск именно музыкальных преступников. Те устраивают настоящий хаос в городе с помощью самых различных звуков шума. Однако борьба с этими эксцентричными музыкантами неожиданно осложняется для Амадея, когда он умудряется влюбиться в их предводительницу…
Качество видео: BDRip
Формат видео: AVI
Видео: 672x288 (2.33:1), 24 fps, XviD build 73 ~879 kbps avg, 0.19 bit/pixel
Аудио: 48 kHz, MPEG Layer 3, 2 ch, ~128.00 kbps avg

MediaInfo

Общее
Полное имя : H:\Sound.of.Noise.2010.bdrip_[745]_[teko].avi
Формат : AVI
Формат/Информация : Audio Video Interleave
Размер файла : 744 Мбайт
Продолжительность : 1 ч. 42 м.
Общий поток : 1017 Кбит/сек
Программа кодирования : VirtualDubMod 1.5.10.3 | www.virtualdub-fr.org || (build 2550/release)
Библиотека кодирования : VirtualDubMod build 2550/release
Видео
Идентификатор : 0
Формат : MPEG-4 Visual
Профиль формата : Advanced Simple@L5
Параметр BVOP формата : 2
Параметр QPel формата : Нет
Параметр GMC формата : Без точки перехода
Параметр матрицы формата : Выборочная
Идентификатор кодека : XVID
Идентификатор кодека/Подсказка : XviD
Продолжительность : 1 ч. 42 м.
Битрейт : 880 Кбит/сек
Ширина : 672 пикселя
Высота : 288 пикселей
Соотношение сторон : 2,35:1
Частота кадров : 24,000 кадра/сек
Цветовое пространство : YUV
Субдискретизация насыщенности : 4:2:0
Битовая глубина : 8 бит
Тип развёртки : Прогрессивная
Метод сжатия : С потерями
Бит/(Пиксели*Кадры) : 0.189
Размер потока : 643 Мбайт (86%)
Библиотека кодирования : XviD 73
Аудио
Идентификатор : 1
Формат : MPEG Audio
Версия формата : Version 1
Профиль формата : Layer 3
Идентификатор кодека : 55
Идентификатор кодека/Подсказка : MP3
Продолжительность : 1 ч. 42 м.
Вид битрейта : Постоянный
Битрейт : 128 Кбит/сек
Каналы : 2 канала
Частота : 48,0 КГц
Метод сжатия : С потерями
Размер потока : 93,6 Мбайт (13%)
Выравнивание : Соединение по промежуткам
Продолжительность промежутка : 42 мс. (1,00 видеокадр)
Время предзагрузки промежутка : 504 мс.
Библиотека кодирования : LAME3.98r
Настройки программы : -m s -V 4 -q 2 -lowpass 17 -b 128



Показать сообщения:    

Текущее время: 03-Дек 03:18

Часовой пояс: UTC + 3


Вы не можете начинать темы
Вы не можете отвечать на сообщения
Вы не можете редактировать свои сообщения
Вы не можете удалять свои сообщения
Вы не можете голосовать в опросах
Вы не можете прикреплять файлы к сообщениям
Вы не можете скачивать файлы