(Classical) Venetian Treasures: Gabrieli, Caldara, Monteverdi, Cavalli - The Sixteen, Harry Christophers - 2007, FLAC (image+.cue) lossless


Статистика раздачи [Обновить пиров]
Размер:  296 MB   |    Зарегистрирован:  8 месяцев 13 дней   |    Скачан:  0 раз

Полного источника не было: Никогда

 
   
 
 
 

[Цитировать]

Venetian Treasures: Gabrieli, Caldara, Monteverdi, Cavalli - The Sixteen, Harry Christophers
Жанр: Classical
Страна-производитель диска: UK
Год издания диска: 2007
Издатель (лейбл): Coro
Номер по каталогу: COR16053
Дата записи: 1991,1992
Аудиокодек: FLAC
Тип рипа: image+.cue
Битрейт аудио: lossless
Продолжительность: 69:43
Источник: собственный рип
Наличие сканов в содержимом раздачи: да
Треклист:
Antonio Caldara (c1671-1736)
[1] Crucifixus a 16
Andrea Gabrieli (?1532/3-1585)
[2] De profundis
Claudio Monteverdi (1567-1643)
[3] Domine ne in furore tuo
Francesco Cavalli (1602-1676)
[4] Salve Regina
Giovanni Gabrieli (c1553-1612)
[5] Hodie completi sunt
Orlandus Lassus (c1532-1594)
[6]-[11] Missa Bell' Amfritit' altera
[12] Tui sunt coeli
Antonio Caldara
[13]-[21] Stabat mater
Исполнители:
The Sixteen
Harry Christophers

Лог создания рипа

Exact Audio Copy V1.0 beta 3 from 29. August 2011
EAC extraction logfile from 11. November 2014, 8:51
The Sixteen, Harry Christophers / Venetian Treasures
Used drive : HL-DT-STDVDRAM GU70N Adapter: 0 ID: 0
Read mode : Secure
Utilize accurate stream : Yes
Defeat audio cache : Yes
Make use of C2 pointers : No
Read offset correction : 48
Overread into Lead-In and Lead-Out : No
Fill up missing offset samples with silence : Yes
Delete leading and trailing silent blocks : No
Null samples used in CRC calculations : Yes
Used interface : Native Win32 interface for Win NT & 2000
Used output format : User Defined Encoder
Selected bitrate : 128 kBit/s
Quality : High
Add ID3 tag : No
Command line compressor : C:\Program Files (x86)\Exact Audio Copy\Flac\flac.exe
Additional command line options : -V -8 -T "Date=%year%" -T "Genre=%genre%" %source%
TOC of the extracted CD
Track | Start | Length | Start sector | End sector
---------------------------------------------------------
1 | 0:00.00 | 4:55.64 | 0 | 22188
2 | 4:55.64 | 6:43.15 | 22189 | 52428
3 | 11:39.04 | 3:57.25 | 52429 | 70228
4 | 15:36.29 | 6:25.33 | 70229 | 99136
5 | 22:01.62 | 3:47.67 | 99137 | 116228
6 | 25:49.54 | 2:48.27 | 116229 | 128855
7 | 28:38.06 | 5:00.16 | 128856 | 151371
8 | 33:38.22 | 6:52.17 | 151372 | 182288
9 | 40:30.39 | 1:51.15 | 182289 | 190628
10 | 42:21.54 | 2:10.35 | 190629 | 200413
11 | 44:32.14 | 4:35.08 | 200414 | 221046
12 | 49:07.22 | 3:09.49 | 221047 | 235270
13 | 52:16.71 | 2:36.34 | 235271 | 247004
14 | 54:53.30 | 3:18.36 | 247005 | 261890
15 | 58:11.66 | 2:17.66 | 261891 | 272231
16 | 60:29.57 | 1:47.66 | 272232 | 280322
17 | 62:17.48 | 1:28.11 | 280323 | 286933
18 | 63:45.59 | 1:17.20 | 286934 | 292728
19 | 65:03.04 | 0:58.60 | 292729 | 297138
20 | 66:01.64 | 1:53.71 | 297139 | 305684
21 | 67:55.60 | 1:45.08 | 305685 | 313567
Range status and errors
Selected range
Filename C:\temp\Venetian Treasures - The Sixteen, Christophers\Venetian Treasures.wav
Peak level 83.0 %
Extraction speed 2.2 X
Range quality 99.9 %
Test CRC DE980F6F
Copy CRC DE980F6F
Copy OK
No errors occurred
AccurateRip summary
Track 1 cannot be verified as accurate (confidence 3) [E327FB13], AccurateRip returned [363E0398] (AR v2)
Track 2 cannot be verified as accurate (confidence 3) [03336C26], AccurateRip returned [36BFCF72] (AR v2)
Track 3 cannot be verified as accurate (confidence 3) [69B877EA], AccurateRip returned [E1254B9B] (AR v2)
Track 4 cannot be verified as accurate (confidence 3) [CA7C9E43], AccurateRip returned [DE9658C0] (AR v2)
Track 5 cannot be verified as accurate (confidence 3) [CFDCEA44], AccurateRip returned [A7E75D55] (AR v2)
Track 6 cannot be verified as accurate (confidence 3) [1241F0BE], AccurateRip returned [045970F9] (AR v2)
Track 7 cannot be verified as accurate (confidence 3) [067C88F1], AccurateRip returned [EE203241] (AR v2)
Track 8 cannot be verified as accurate (confidence 3) [02A06C43], AccurateRip returned [124135B6] (AR v2)
Track 9 cannot be verified as accurate (confidence 3) [BC01E387], AccurateRip returned [88132089] (AR v2)
Track 10 cannot be verified as accurate (confidence 3) [9A501311], AccurateRip returned [3F9B75EE] (AR v2)
Track 11 cannot be verified as accurate (confidence 3) [46FDE1AE], AccurateRip returned [C9B2889F] (AR v2)
Track 12 cannot be verified as accurate (confidence 3) [C8FD1962], AccurateRip returned [E7429D94] (AR v2)
Track 13 cannot be verified as accurate (confidence 3) [450416C0], AccurateRip returned [420D7AD8] (AR v2)
Track 14 cannot be verified as accurate (confidence 3) [3242322C], AccurateRip returned [EBF2FC20] (AR v2)
Track 15 cannot be verified as accurate (confidence 3) [0E1CBA19], AccurateRip returned [593DD36E] (AR v2)
Track 16 cannot be verified as accurate (confidence 3) [869E6AD6], AccurateRip returned [A04AA7FB] (AR v2)
Track 17 cannot be verified as accurate (confidence 3) [3430467E], AccurateRip returned [FA897FCA] (AR v2)
Track 18 cannot be verified as accurate (confidence 3) [8EE4450A], AccurateRip returned [EB442768] (AR v2)
Track 19 cannot be verified as accurate (confidence 3) [2B1B13DF], AccurateRip returned [85BA19E3] (AR v2)
Track 20 cannot be verified as accurate (confidence 3) [A7CD31E4], AccurateRip returned [528247E6] (AR v2)
Track 21 cannot be verified as accurate (confidence 3) [B21B2F40], AccurateRip returned [3B246B01] (AR v2)
No tracks could be verified as accurate
You may have a different pressing from the one(s) in the database
End of status report
==== Log checksum 06D4DFC2F11ECA657D7ED58D497A1C9D96780114420D8316BA43C5C4C7B09322 ====
[teatrix.ru].t22719.torrent 
Торрент: Зарегистрирован [ 2016-03-21 00:47 ] · 0513DE15362B788FA25911CE39DEF8EBFB23B18B

Скачать .torrent

Скачать

24 KB

Статус: проверено
Скачан: 0 раз
Размер: 296 MB
terms.php



Быстрый ответ

Имя:

      
Для отправки сообщений необходимо включить JavaScript
Показать сообщения:    

Текущее время: 03-Дек 05:28

Часовой пояс: UTC + 3


Вы можете начинать темы
Вы можете отвечать на сообщения
Вы не можете редактировать свои сообщения
Вы не можете удалять свои сообщения
Вы не можете голосовать в опросах
Вы не можете прикреплять файлы к сообщениям
Вы можете скачивать файлы