Домик (Александр Белинский) [1967 г., комедия, телеспектакль, WEB-DLRip]


 

[Цитировать]

Домик Год выпуска: 1967.
Жанр: комедия, телеспектакль.
Продолжительность: 01:04:01.
Режиссер: Александр Белинский.
Действующие лица и исполнители:
Есаулова, председатель городского исполкома - Эмма Попова,
Неуходимов, зав. городским коммунальным хозяйством - Павел Панков,
Ваткин, заведующий городским финансовым отделом - Рэм Лебедев,
Передышкин, управляющий делами горсовета - Александр Анисимов,
Шура, машинистка - Людмила Вагнер,
Персюков, директор Конского парка культуры и отдыха - Лев Лемке,
Сарыгина, старуха - Гликерия Богданова-Чеснокова,
Павликова, областной прокурор - Лидия Штыкан,
Почтальон - Ольга Волкова,
Заведующая аптекой - Майя Тупикова,
Провизор - Михаил Девяткин,
Котя - Ваня Панков.
О спектакле:
Комедия "Домик" написана Валентином Катаевым в 1937 году.
Действие происходит в 30-х годах, весной, летом и осенью, в вымышленном городе Конске. Директор местного парка культуры и отдыха Персюков, вообразивший, что в Конске бывал великий математик Лобачевский, решает воспользоваться этим обстоятельством. Бурная деятельность, которую развивает Персюков, в несколько месяцев меняет лицо заштатного райцентра...

Дополнительная информация:
Страна: СССР .
Выпущено: Ленинградское телевидение.
Автор: Алексей Арбузов.
Ведущий оператор: Борис Никаноров.
Художник: Валентин Попов.
Релиз
Рип lesik689.

Качество видео:...WEB-DLRip
Формат:.................AVI
Видео:..640x480 (1.33:1), 25 fps, XviD MPEG-4 ~1801 kbps avg, 0.23 bit/pixel
Аудио:..44.100 kHz, MPEG Layer 3, 2 ch, ~128.00 kbps avg

Отчет Media Info

General
Complete name : Domik.1967.XviD.WEB-DLRip.fenixclub.avi
Format : AVI
Format/Info : Audio Video Interleave
File size : 888 MiB
Duration : 1h 4mn
Overall bit rate : 1 939 Kbps
Writing application : VirtualDubMod 1.5.10.2 (build 2542/release)
Writing library : VirtualDubMod build 2542/release
Video
ID : 0
Format : MPEG-4 Visual
Format profile : Advanced Simple@L5
Format settings, BVOP : 2
Format settings, QPel : No
Format settings, GMC : No warppoints
Format settings, Matrix : Default (MPEG)
Codec ID : XVID
Codec ID/Hint : XviD
Duration : 1h 4mn
Bit rate : 1 802 Kbps
Width : 640 pixels
Height : 480 pixels
Display aspect ratio : 5:4
Original display aspect rat : 4:3
Frame rate : 25.000 fps
Color space : YUV
Chroma subsampling : 4:2:0
Bit depth : 8 bits
Scan type : Progressive
Compression mode : Lossy
Bits/(Pixel*Frame) : 0.235
Stream size : 825 MiB (93%)
Writing library : XviD 73
Audio
ID : 1
Format : MPEG Audio
Format version : Version 1
Format profile : Layer 3
Mode : Joint stereo
Mode extension : MS Stereo
Codec ID : 55
Codec ID/Hint : MP3
Duration : 1h 4mn
Bit rate mode : Constant
Bit rate : 128 Kbps
Channel(s) : 2 channels
Sampling rate : 44.1 KHz
Compression mode : Lossy
Delay relative to video : 9ms
Stream size : 58.5 MiB (7%)
Alignment : Split accross interleaves
Interleave, duration : 40 ms (1.00 video frame)
Interleave, preload duratio : 500 ms

Скриншоты


Альтернативный хост





Показать сообщения:    

Текущее время: 06-Дек 17:01

Часовой пояс: UTC + 3


Вы не можете начинать темы
Вы не можете отвечать на сообщения
Вы не можете редактировать свои сообщения
Вы не можете удалять свои сообщения
Вы не можете голосовать в опросах
Вы не можете прикреплять файлы к сообщениям
Вы не можете скачивать файлы