(Classical) Royal Philharmonic Orchestra - Here Come The Classics Volume Three (Глинка, Mozart, Bach, Dvorak, Sibelius, Faure, Lehar, Binge, Liszt, Sint-Saens, Ketelbey, Waldteufel) - 2002, FLAC (image+.cue) lossless


 

[Цитировать]

Royal Philharmonic Orchestra - Here Come The Classics Volume Three
Жанр: Classical
Страна-производитель диска: Россия
Год издания диска: 2002
Издатель (лейбл): Imagination/megaлайнер рекордз
Номер по каталогу: RPO 003 CD
Дата записи: 26,28.02.2002
Аудиокодек: FLAC
Тип рипа: image+.cue
Битрейт аудио: lossless
Продолжительность: 71.33
Источник: собственный рип
Наличие сканов в содержимом раздачи: да
Треклист:
1.Mozart - Overture, The Marriage Of Figaro
2.Lehar - Waltz, The Merry Widow
3.Binge - Elizabethan Serenade
4.Glinka - Overture, Ruslan And Ludmilla
5.Sibelius - March, Karelia Suite
6.Bach - Air On A G String
7.Faure - Pavane
8.Dvorak - Slavonic Dance No. 8
9.Ketelbey - In A Persian Market
10.Waldteufel - The Skaters' Waltz
11.Saint-Saens - Dance Macabre
12.Liszt - Hungarian Rhapsody No. 2
Исполнители:
The Royal Philharmonic Orchestra,
Nick Davies - conductor

Лог создания рипа

Exact Audio Copy V1.0 beta 3 from 29. August 2011
Отчёт EAC об извлечении, выполненном 16. декабря 2015, 14:26
Royal Philharmonic Orchestra / Here Comes The Classics Volume 3
Дисковод: TSSTcorpCDDVDW SN-208BB Adapter: 1 ID: 0
Режим чтения : Достоверность
Использование точного потока : Да
Отключение кэша аудио : Да
Использование указателей C2 : Нет
Коррекция смещения при чтении : 6
Способность читать области Lead-in и Lead-out : Нет
Заполнение пропущенных сэмплов тишиной : Да
Удаление блоков с тишиной в начале и конце : Нет
При вычислениях CRC использовались нулевые сэмплы : Да
Интерфейс : Встроенный Win32-интерфейс для Win NT/2000
Выходной формат : Пользовательский кодировщик
Выбранный битрейт : 128 kBit/s
Качество : Высокий
Добавление ID3-тега : Нет
Утилита сжатия : C:\Program Files (x86)\Exact Audio Copy\Flac\flac.exe
Дополнительные параметры : -V -8 -T "Date=%year%" -T "Genre=%genre%" %source%
TOC извлечённого CD
Трек | Старт | Длительность | Начальный сектор | Конечный сектор
---------------------------------------------------------------------
1 | 0:00.00 | 4:30.74 | 0 | 20323
2 | 4:30.74 | 5:51.26 | 20324 | 46674
3 | 10:22.25 | 3:16.14 | 46675 | 61388
4 | 13:38.39 | 5:38.47 | 61389 | 86785
5 | 19:17.11 | 4:57.60 | 86786 | 109120
6 | 24:14.71 | 4:49.15 | 109121 | 130810
7 | 29:04.11 | 6:29.26 | 130811 | 160011
8 | 35:33.37 | 4:31.36 | 160012 | 180372
9 | 40:04.73 | 6:32.04 | 180373 | 209776
10 | 46:37.02 | 7:08.18 | 209777 | 241894
11 | 53:45.20 | 7:22.09 | 241895 | 275053
12 | 61:07.29 | 10:34.02 | 275054 | 322605
Характеристики диапазона извлечения и сообщения об ошибках
Выбранный диапазон
Имя файла C:\Users\Samsung\Documents\Royal Philharmonic Orchestra - Here Comes The Classics Volume 3\Royal Philharmonic Orchestra - Here Comes The Classics Volume 3.wav
Пиковый уровень 97.3 %
Скорость извлечения 5.1 X
Качество диапазона 99.9 %
CRC теста A79D71A9
CRC копии A79D71A9
Копирование... OK
Ошибок не произошло
AccurateRip: сводка
Трек 1 отсутствует в базе данных
Трек 2 отсутствует в базе данных
Трек 3 отсутствует в базе данных
Трек 4 отсутствует в базе данных
Трек 5 отсутствует в базе данных
Трек 6 отсутствует в базе данных
Трек 7 отсутствует в базе данных
Трек 8 отсутствует в базе данных
Трек 9 отсутствует в базе данных
Трек 10 отсутствует в базе данных
Трек 11 отсутствует в базе данных
Трек 12 отсутствует в базе данных
Ни одного трека нет в базе AccurateRip
Конец отчёта
==== Контрольная сумма отчёта D0700897E8580A36F031D3D53A0B23E1934E4708AA2220BCEAF1A4D0B4B9822C ====

Содержание индексной карты (.CUE)

REM GENRE Classical
REM DATE 2002
REM DISCID AD10CD0C
REM COMMENT "ExactAudioCopy v1.0b3"
CATALOG 0000000000000
PERFORMER "Royal Philharmonic Orchestra"
TITLE "Here Comes The Classics Volume 3"
FILE "Royal Philharmonic Orchestra - Here Comes The Classics Volume 3.flac" WAVE
TRACK 01 AUDIO
TITLE "Mozart overture - The Marriage of Figaro"
PERFORMER "Royal Philharmonic Orchestra"
INDEX 01 00:00:00
TRACK 02 AUDIO
TITLE "Lehar Waltz - The Merry Widow"
PERFORMER "Royal Philharmonic Orchestra"
INDEX 01 04:30:74
TRACK 03 AUDIO
TITLE "Binge - Elizabethan Serenade"
PERFORMER "Royal Philharmonic Orchestra"
INDEX 01 10:22:25
TRACK 04 AUDIO
TITLE "Glinka overture - Ruslan and Ludmilla"
PERFORMER "Royal Philharmonic Orchestra"
INDEX 01 13:38:39
TRACK 05 AUDIO
TITLE "Sibelius March - Karelia Suite"
PERFORMER "Royal Philharmonic Orchestra"
INDEX 00 19:17:10
INDEX 01 19:17:11
TRACK 06 AUDIO
TITLE "Bach - Air on a G string"
PERFORMER "Royal Philharmonic Orchestra"
INDEX 01 24:14:71
TRACK 07 AUDIO
TITLE "Faure - Pavane"
PERFORMER "Royal Philharmonic Orchestra"
INDEX 01 29:04:11
TRACK 08 AUDIO
TITLE "Dvorak - Slavonic Dance No 8"
PERFORMER "Royal Philharmonic Orchestra"
INDEX 01 35:33:37
TRACK 09 AUDIO
TITLE "Ketelbey - In a Persian Market"
PERFORMER "Royal Philharmonic Orchestra"
INDEX 01 40:04:73
TRACK 10 AUDIO
TITLE "Waldteufel - the Skaters Waltz"
PERFORMER "Royal Philharmonic Orchestra"
INDEX 01 46:37:02
TRACK 11 AUDIO
TITLE "Saint-Saens - Danse Macabre"
PERFORMER "Royal Philharmonic Orchestra"
INDEX 01 53:45:20
TRACK 12 AUDIO
TITLE "Lizt - arr Muller-Berghaus - Hungarian Rhapsody No 2"
PERFORMER "Royal Philharmonic Orchestra"
INDEX 01 61:07:29



Показать сообщения:    

Текущее время: 02-Дек 21:15

Часовой пояс: UTC + 3


Вы не можете начинать темы
Вы не можете отвечать на сообщения
Вы не можете редактировать свои сообщения
Вы не можете удалять свои сообщения
Вы не можете голосовать в опросах
Вы не можете прикреплять файлы к сообщениям
Вы не можете скачивать файлы